Welcome Guest ( Log In | Register )

> Releases Upload / Добавление релизов

Добавить релиз тут / Click here to add release
Рекомендованные обменники / Recommended file shares

> Xerophthalmia - Forlorn//Hope [ep] (2020), Deathcore
post Feb 13 2020, 16:18:38
Post #1

Serial Uploader
Group Icon
Group: V.I.P
Posts: 37,112
Releases: 35296
From: Lithuania
On Forums: 11 years 10 months
Thanks: 418318 time(s)
Lithuania


(IMG:http://metalarea.org/images/audiocovers/2020_Feb/acov_tid333765_thumb.jpg)

*Artist: Xerophthalmia
*Album: Forlorn//Hope [ep]
*Year: 2020
*Genre: Deathcore
*Country: United States (IMG:http://metalarea.org/forum/style_images/flags/United%20States.png)
*Format: mp3@CBR320kbps
*Size: 36MB

Tracklist:
01. Deviancy 03:00
02. Metamorphosis 02:31
03. Inferno 02:44
04. Overlord (feat. Andrew Patterson) 03:23
05. The Grey 04:03
******************************
Total playing time: 15:41



(IMG:http://metalarea.org/images/youtube.png)

Technical info
(IMG:http://metalarea.org/images/spectrogram/2020_Feb/60f45c4cb5d042db79792ea2f0acd547.png)
Input File: 02 Metamorphosis.mp3
Channels : 2
Sample Rate : 44100
Precision : 16-bit
Duration : 00:02:31.89 = 6698217 samples = 11391.5 CDDA sectors
File Size : 6.15M
Bit Rate : 324k
Sample Encoding: MPEG audio (layer I, II or III)
Comments :
Title=Metamorphosis
Artist=Xerophthalmia
Album=Forlorn // Hope
Tracknumber=2
Year=2020
Genre=Slamming Deathcore
Discnumber=1/1



Register


Thanks:
Go to the top of the page
  Insert nick Quick quote
+Quote Post
 
Start new topic
Replies (1 - 1)
post Feb 14 2020, 10:43:53
Post #2

тебе 29, а ты все реверсами балуешься
***********
Group: Металариец
Posts: 1,905
Releases: 4
On Forums: 11 years 8 months
Thanks: 628 time(s)
Russian Federation


Почему я, заходя в тему с тегом Deathcore, всё время ожидаю чего-то нового и необычного? (IMG:style_emoticons/default/hmm.gif)
Сабж мегастандартнейший, ещё и с плохим звуком.
Go to the top of the page
  Insert nick Quick quote
+Quote Post

Reply to this topicStart new topic
2 User(s) are reading this topic (2 Guests and 0 Anonymous Users)
0 Members:

 



- Lo-Fi Version Support form
Copyrights and abuse reports form
Time is now: 10th April 2020 - 10:12:35