Welcome Guest ( Log In | Register )

> Releases Upload / Добавление релизов

Добавить релиз тут / Click here to add release
Рекомендованные обменники / Recommended file shares

 
Reply to this topicStart new topic
> Gaia & Drukner - Gaia/Drukner [split] (2019), Stoner/Doom Metal | Stoner/Doom Metal (D6)
post Feb 13 2020, 16:19:12
Post #1

Мегаманьяк
***********
Group: Металариец
Posts: 1,796
Releases: 163
From: Omsk, Siberia
On Forums: 11 years 2 weeks
Thanks: 3539 time(s)
Russian Federation


(IMG:http://metalarea.org/images/audiocovers/2020_Feb/acov_tid333766_thumb.jpg)

*Artist: Gaia & Drukner
*Album: Gaia/Drukner [split]
*Year: 2019
*Genre: Stoner/Doom Metal | Stoner/Doom Metal
*Country: Denmark (IMG:http://metalarea.org/forum/style_images/flags/Denmark.png) | Denmark (IMG:http://metalarea.org/forum/style_images/flags/Denmark.png)
*Format: mp3@CBR320kbps
*Size: 93MB

Tracklist:
Gaia:
1. Earthbound 13:34
2. Out Of The Well 08:23
Drukner:
3. Discordia I 05:46
4. Olmen 02:36
5. Discordia II 10:04
******************************
Total playing time: 40:24





Extended info
Released in collaboration with: AUSI Records, Svensk Psych Aften, Vinyltrolden and Virkelighedsfjern.

Gaia line-up:
Mark B Jensen - drums (Måneskjold, Solens Folk)
Morten Bastkjær Christensen - bass (God Dam, Gråsind, Katla [Dnk], Måneskjold, Solens Folk)
Kriller Andersen - guitar, vocals (By Uden Himmel, God Dam, Katla [Dnk], Lucid Grave, Måneskjold, Naturale [Dnk], Rocket Gravy, Solens Folk)

Drukner line-up:
Theodor Reumert - drums
Mikkel Rishøj - guitar, soundscapes
Kåre Lindberg - bass
Palle Skovhede - guitar, vocals


Technical info
(IMG:http://metalarea.org/images/spectrogram/2020_Feb/fa838ec5d2b8efba1c6a3633dfcebfe1.png)
Input File: 02 Gaia - Out of the Well.mp3
Channels : 2
Sample Rate : 44100
Precision : 16-bit
Duration : 00:08:23.38 = 22199102 samples = 37753.6 CDDA sectors
File Size : 20.2M
Bit Rate : 321k
Sample Encoding: MPEG audio (layer I, II or III)
Comments :
Title=Out of the Well
Artist=Gaia
Album=Gaia / Drukner - Split
Tracknumber=2
Year=2019
Genre=Stoner/Doom Metal



Register


Go to the top of the page
  Insert nick Quick quote
+Quote Post

Reply to this topicStart new topic
1 User(s) are reading this topic (1 Guests and 0 Anonymous Users)
0 Members:

 



- Lo-Fi Version Support form
Copyrights and abuse reports form
Time is now: 7th April 2020 - 03:37:32