Welcome Guest ( Log In | Register )

> Правила / Rules

Тут только для чтения лежат низкобитрейтные (<192kbps) релизы, для которых есть аналоги в высокобитрейтных форумах.

Here goes (and stand in read only mode) low bitrate releases (<192kbps) which were already replaced by high bitrate releases in corresponding forums.

Причина закрытия (DarkHorde 18-02-2020): Karnivore - Dödsriket (2020)
 
Closed TopicStart new topic
> Karnivore - Dödsriket (2020), Death/Thrash Metal
post Feb 13 2020, 16:58:02
Post #1

Каждое ваше "Спасибо" помогает мне понять, что я делаю новости не напрасно.
**************
Group: Металариец
Posts: 2,531
Releases: 2247
From: Одесса
On Forums: 11 years 10 months
Thanks: 20726 time(s)
Ukraine


(IMG:http://metalarea.org/images/audiocovers/2020_Feb/acov_tid333769_thumb.jpeg)

*Artist: Karnivore
*Album: Dödsriket
*Year: 2020
*Genre: Death/Thrash Metal
*Country: Sweden (IMG:http://metalarea.org/forum/style_images/flags/Sweden.png)
*Format: mp3@CBR128kbps (IMG:http://metalarea.org/images/bit_low.gif)
*Size: 44MB

Tracklist:
1.Hinterkaifeck (Intro)
2.Empire of Filth
3.War Is Coming
4.Slice 'n Dice
5.No Freak
6.Murder Dungeon
7.Black Flames
8.The Antfarm
9.Woodshed
10.Disfigured Man
******************************
Total playing time: 45:55



Extended info
Line - up:

Mattias Johansson - Drums (Goat Skull, In Pain, ex-Fear the Future, ex-Karneywar, ex-El Camino, ex-Nidhöggr, ex-Under Attack)
Jens Englund - Guitars (Skyfall, ex-Memoria, ex-Karneywar)
Martin Holmqvist - Vocals (ex-Karneywar)

(IMG:https://f4.bcbits.com/img/0013104175_10.jpg)


Technical info
(IMG:http://metalarea.org/images/spectrogram/2020_Feb/1c651dca491f2c1bbe155f09eda482f3.png)
Input File: 03 Karnivore - War Is Coming.mp3
Channels : 2
Sample Rate : 44100
Precision : 16-bit
Duration : 00:04:09.58 = 11006434 samples = 18718.4 CDDA sectors
File Size : 4.00M
Bit Rate : 128k
Sample Encoding: MPEG audio (layer I, II or III)
Comments :
Title=War Is Coming
Artist=Karnivore
Album=Dödsriket
Tracknumber=3
Year=2020
Genre=Death/Thrash Metal



Register


Go to the top of the page
  Insert nick Quick quote
+Quote Post

Причина закрытия (DarkHorde 18-02-2020): Karnivore - Dödsriket (2020)
Closed TopicStart new topic
1 User(s) are reading this topic (1 Guests and 0 Anonymous Users)
0 Members:

 



- Lo-Fi Version Support form
Copyrights and abuse reports form
Time is now: 10th April 2020 - 14:03:41