Welcome Guest ( Log In | Register )

> И неформату есть предел.

Рэп/хип-хоп/шансон/поп удаляются. Для них есть свои порталы.

> Morketsvind - Saga Of Blood Lands (2018), Dungeon Synth
post Feb 13 2020, 23:28:56
Post #1

Dark Ambient Shoujo
**********
Group: Металариец
Posts: 1,246
Releases: 2
On Forums: 11 years 3 months
Thanks: 684 time(s)
Russian Federation


(IMG:http://metalarea.org/images/audiocovers/2020_Feb/acov_tid333778_thumb.jpg)

*Artist: Morketsvind
*Album: Saga Of Blood Lands
*Year: 2018
*Genre: Dungeon Synth
*Country: Russian Federation (IMG:http://metalarea.org/forum/style_images/flags/Russian%20Federation.png)
*Format: mp3@CBR320kbps
*Size: 85MB

Tracklist:
1.Crusade 03:24
2. Borderland Forest 04:00
3. Sunset in Dark Mountains 03:58
4. Mountains of Blood 03:23
5. Citadel on Horisont 03:02
6. Intrigues of Kha-Enir 03:07
7. Ceremony of Blood God 04:14
8. Imperial Ball 03:16
9. Gates above the Altar 03:41
10. Return 03:38
******************************
Total playing time: 35:43


VK

Technical info
(IMG:http://metalarea.org/images/spectrogram/2020_Feb/184c070fa0469d8c9c4d6cd7781157db.png)
Input File: Morketsvind - Saga Of Blood Lands - 01 Crusade.mp3
Channels : 2
Sample Rate : 44100
Precision : 16-bit
Duration : 00:03:24.08 = 8999884 samples = 15305.9 CDDA sectors
File Size : 8.26M
Bit Rate : 324k
Sample Encoding: MPEG audio (layer I, II or III)
Comments :
Title=Crusade
Artist=Morketsvind
Album=Saga Of Blood Lands
Tracknumber=1
Year=2018



Register


Go to the top of the page
  Insert nick Quick quote
+Quote Post
 
Start new topic
Replies (1 - 3)
post Feb 14 2020, 03:32:22
Post #2

Dark Ambient Shoujo
**********
Group: Металариец
Posts: 1,246
Releases: 2
On Forums: 11 years 3 months
Thanks: 684 time(s)
Russian Federation


Register


Go to the top of the page
  Insert nick Quick quote
+Quote Post
post Feb 20 2020, 13:59:11
Post #3

Два Литра
**
Group: Завсегдатай
Posts: 103
Releases: 0
On Forums: 1 month 2 weeks
Thanks: 63 time(s)
Unknown


Один из самых (если не самый) интересных и качественных Dungeon Synth проектов на российской сцене
Go to the top of the page
  Insert nick Quick quote
+Quote Post
post Feb 21 2020, 00:07:31
Post #4

врач педиатр-патологоанатом
*****
Group: Металариец
Posts: 476
Releases: 22
From: Кадыкчан
On Forums: 10 years 9 months
Thanks: 477 time(s)
Russian Federation


ЦИТАТА(Der_Hexer @ Feb 20 2020, 22:59:11) *
Один из самых (если не самый) интересных и качественных Dungeon Synth проектов на российской сцене


Подтверждаю, очень годный проект.
Go to the top of the page
  Insert nick Quick quote
+Quote Post

Reply to this topicStart new topic
1 User(s) are reading this topic (1 Guests and 0 Anonymous Users)
0 Members:

 



- Lo-Fi Version Support form
Copyrights and abuse reports form
Time is now: 7th April 2020 - 05:19:50