Welcome Guest ( Log In | Register )

> Releases Upload / Добавление релизов

Добавить релиз тут / Click here to add release
Рекомендованные обменники / Recommended file shares

> Red Dead - Forest Of Chaos (2020), Old School Death Metal
post Feb 14 2020, 05:52:06
Post #1

Правь статус, ####!111
**************
Group: Металариец
Posts: 20,620
Releases: 14070
From: Г.Харьков
On Forums: 7 years 9 months
Thanks: 248226 time(s)
Unknown


(IMG:http://metalarea.org/images/audiocovers/2020_Feb/acov_tid333779_thumb.jpg)

*Artist: Red Dead
*Album: Forest Of Chaos
*Year: 2020
*Genre: Old School Death Metal
*Country: France (IMG:http://metalarea.org/forum/style_images/flags/France.png)
*Format: mp3@CBR320kbps
*Size: 95MB

Tracklist:
1. Funeral Path 01:54
2. Forest of Flesh 03:15
3. The Gatekeeper 04:17
4. Butcher's Pray 03:34
5. Black Valley 03:33
6. Red Eyes Children 03:47
7. Old Skull Road 03:43
8. Antidote Trap 03:09
9. Servant of the Death 03:50
10. Epidemic Fangs 04:00
11. Wind of Chaos 03:30
12. Into the Void 01:51
******************************
Total playing time: 40:23




Extended info
Roolet Bass, Vocals
Tony Drums
Antho Guitars (lead)


Technical info
(IMG:http://metalarea.org/images/spectrogram/2020_Feb/8e20dbea3be2b44e4a5cf3bb97e9fd75.png)
Input File: 07 - Old Skull Road.mp3
Channels : 2
Sample Rate : 44100
Precision : 16-bit
Duration : 00:03:43.23 = 9844487 samples = 16742.3 CDDA sectors
File Size : 9.15M
Bit Rate : 328k
Sample Encoding: MPEG audio (layer I, II or III)
Comments :
Title=Old Skull Road
Artist=Red Dead
Album=Forest of Chaos
Tracknumber=7
Year=2020



Register


Go to the top of the page
  Insert nick Quick quote
+Quote Post
 
Start new topic
Replies (1 - 2)
post Feb 14 2020, 20:24:45
Post #2

Group: Дух
Posts: 2
Releases: 0
On Forums: 2 months 2 weeks
Thanks: 0 time(s)
Andorra


I just found these guys. Wow, they're pretty fucking good. Is there a link to their first album?

Love to find this album in FLAC. Great stuff. Nice post!

LB2
Go to the top of the page
  Insert nick Quick quote
+Quote Post
post Feb 17 2020, 17:09:46
Post #3

Правь статус, ####!111
**************
Group: Металариец
Posts: 2,844
Releases: 8
From: Dnipro
On Forums: 11 years 7 months
Thanks: 904 time(s)
Ukraine


Знатная олдскульщина.
Go to the top of the page
  Insert nick Quick quote
+Quote Post

Reply to this topicStart new topic
1 User(s) are reading this topic (1 Guests and 0 Anonymous Users)
0 Members:

 



- Lo-Fi Version Support form
Copyrights and abuse reports form
Time is now: 20th February 2020 - 00:21:52