Welcome Guest ( Log In | Register )

> Darkened Horizons - Silentium Universi (2020), Progressive/Melodic Death Metal
post Feb 14 2020, 06:06:20
Post #1

Правь статус, ####!111
**************
Group: Металариец
Posts: 23,135
Releases: 16138
From: Г.Харьков
On Forums: 8 years 4 months
Thanks: 300248 time(s)
Unknown


(IMG:http://metalarea.org/images/audiocovers/2020_Feb/acov_tid333780_thumb.jpg)

*Artist: Darkened Horizons
*Album: Silentium Universi
*Year: 2020
*Genre: Progressive/Melodic Death Metal
*Country: United States (IMG:http://metalarea.org/forum/style_images/flags/United%20States.png)
*Format: mp3@CBR320kbps
*Size: 87MB

Tracklist:
1. Burns Through Time 02:58
2. Silentium Universi 04:35
3. Desire Path 04:11
4. Dark Alliance 05:49
5. First Iteration 05:18
6. Through the Grid 03:40
7. The Fading Era 08:37
8. Ellipsism 06:33
******************************
Total playing time: 41:41




Extended info
Adrian Socaciu All instruments, Vocals
See also: Dawn of Dissolution, Sculpting Atrocity, Vacillation
Josh Ellis Lyrics, Vocals (additional)
See also: Vacillation


Technical info
(IMG:http://metalarea.org/images/spectrogram/2020_Feb/75b4f53801486a1af39739602348e4b9.png)
Input File: 03. Desire Path.mp3
Channels : 2
Sample Rate : 44100
Precision : 16-bit
Duration : 00:04:11.47 = 11089871 samples = 18860.3 CDDA sectors
File Size : 10.2M
Bit Rate : 323k
Sample Encoding: MPEG audio (layer I, II or III)
Comments :
Title=Desire Path
Artist=Darkened Horizons
Album=Silentium Universi
Tracknumber=3/8
Year=2020
Discnumber=1/1



Register


Go to the top of the page
  Insert nick Quick quote
+Quote Post
 
Start new topic
Replies (1 - 1)
post Feb 17 2020, 01:44:27
Post #2

Ъ
**************
Group: Металариец
Posts: 10,224
Releases: 9
On Forums: 11 years 8 months
Thanks: 2064 time(s)
Sweden


Третьесорт.
Go to the top of the page
  Insert nick Quick quote
+Quote Post

Reply to this topicStart new topic
1 User(s) are reading this topic (1 Guests and 0 Anonymous Users)
0 Members:

 



- Lo-Fi Version Support form
Copyrights and abuse reports form
Time is now: 19th September 2020 - 16:44:27