Welcome Guest ( Log In | Register )

> Releases Upload / Добавление релизов

Добавить релиз тут / Click here to add release
Рекомендованные обменники / Recommended file shares

> Terrifiant - Terrifiant (2020), Heavy/Speed Metal
post Feb 14 2020, 06:20:06
Post #1

Правь статус, ####!111
**************
Group: Металариец
Posts: 20,648
Releases: 14096
From: Г.Харьков
On Forums: 7 years 9 months
Thanks: 248774 time(s)
Unknown


(IMG:http://metalarea.org/images/audiocovers/2020_Feb/acov_tid333781_thumb.jpg)

*Artist: Terrifiant
*Album: Terrifiant
*Year: 2020
*Genre: Heavy/Speed Metal
*Country: Belgium (IMG:http://metalarea.org/forum/style_images/flags/Belgium.png)
*Format: mp3@CBR320kbps
*Size: 72MB

Tracklist:
1. Steel for Life 03:19 instrumental
2. Devil in Transport 03:43
3. Bed Queen 03:41
4. Just Because I Can 04:37
5. Metal and More 05:04
6. Speedline 03:55
7. Iron Mountain 07:16
******************************
Total playing time: 31:35




Extended info
Sniffany Baggs Bass
Alcoloic Drums
Slime Valdi Guitars
Lord TerrifianT Vocals
ZZ Slop Guitars


Technical info
(IMG:http://metalarea.org/images/spectrogram/2020_Feb/f8adb4f75f7958433502a7cc25f06014.png)
Input File: 04 - Just Because I Can.mp3
Channels : 2
Sample Rate : 44100
Precision : 16-bit
Duration : 00:04:37.13 = 12221213 samples = 20784.4 CDDA sectors
File Size : 11.2M
Bit Rate : 323k
Sample Encoding: MPEG audio (layer I, II or III)
Comments :
Title=Just Because I Can
Artist=Terrifiant
Album=Terrifiant
Tracknumber=04
Year=2020
Genre=Metal
Discnumber=1



Register


Go to the top of the page
  Insert nick Quick quote
+Quote Post
 
Start new topic
Replies (1 - 1)
post Feb 15 2020, 10:05:25
Post #2

Group: Дух
Posts: 6
Releases: 0
On Forums: 6 days 12 hours
Thanks: 0 time(s)
Guatemala


Sounds interesting
Go to the top of the page
  Insert nick Quick quote
+Quote Post

Reply to this topicStart new topic
1 User(s) are reading this topic (1 Guests and 0 Anonymous Users)
0 Members:

 



- Lo-Fi Version Support form
Copyrights and abuse reports form
Time is now: 21st February 2020 - 23:00:02