Welcome Guest ( Log In | Register )

> Releases Upload / Добавление релизов

Добавить релиз тут / Click here to add release
Рекомендованные обменники / Recommended file shares

> Immorgon - As Shadows Fall (2020), Melodic Death/Viking Metal
post Feb 14 2020, 06:33:50
Post #1

Правь статус, ####!111
**************
Group: Металариец
Posts: 21,289
Releases: 14570
From: Г.Харьков
On Forums: 7 years 10 months
Thanks: 260180 time(s)
Unknown


(IMG:http://metalarea.org/images/audiocovers/2020_Feb/acov_tid333782_thumb.jpg)

*Artist: Immorgon
*Album: As Shadows Fall
*Year: 2020
*Genre: Melodic Death/Viking Metal
*Country: Spain (IMG:http://metalarea.org/forum/style_images/flags/Spain.png)
*Format: mp3@CBR320kbps
*Size: 117MB

Tracklist:
1. Pale Beams of Light 06:53
2. The Last Heights 05:13
3. Ocells de foc 04:31
4. The Raven 05:07
5. The Bloodthirster 06:12
6. The Fall 05:10
7. Walk Among the Forest 03:59
8. Chants of War 05:46
9. Per mon escut no hi ha flors 03:38
10. Written in Snow 04:19
******************************
Total playing time: 50:48




Extended info
Steavy Gamester Drums (2012-2013, 2015-present)
See also: Khaos Origin, Vad, Worth
Axel Jordana Guitars, Vocals (backing) (2012-present)
Charlie Trinkhorn Vocals (lead), Guitars (2012-present)
Joan de Ros Bass (2014-present)
See also: Vad



Technical info
(IMG:http://metalarea.org/images/spectrogram/2020_Feb/b4be43f8445275d84db26b83723b3085.png)
Input File: 05. The Bloodthirster.mp3
Channels : 2
Sample Rate : 44100
Precision : 16-bit
Duration : 00:06:12.19 = 16413579 samples = 27914.2 CDDA sectors
File Size : 15.0M
Bit Rate : 323k
Sample Encoding: MPEG audio (layer I, II or III)
Comments :
Title=The Bloodthirster
Artist=Immorgon
Album=As Shadows Fall
Tracknumber=5
Year=2020-02-13
Discnumber=1



Register


Go to the top of the page
  Insert nick Quick quote
+Quote Post
 
Start new topic
Replies (1 - 4)
post Feb 15 2020, 07:58:17
Post #2

Маньяк
**********
Group: Металариец
Posts: 1,347
Releases: 3
From: Новороссия
On Forums: 14 years 1 month
Thanks: 743 time(s)
Russian Federation


Вроде не плохие гишпанцы, соплей нет, мелодика и мощь есть.
Go to the top of the page
  Insert nick Quick quote
+Quote Post
post Feb 17 2020, 02:31:34
Post #3

Ъ
**************
Group: Металариец
Posts: 10,018
Releases: 9
On Forums: 11 years 2 months
Thanks: 1989 time(s)
Sweden


Третьесорт, на раз послушать можно.
Go to the top of the page
  Insert nick Quick quote
+Quote Post
post Feb 17 2020, 17:07:43
Post #4

Правь статус, ####!111
**************
Group: Металариец
Posts: 2,913
Releases: 8
From: Dnipro
On Forums: 11 years 8 months
Thanks: 924 time(s)
Ukraine


ЦИТАТА(DenisKov @ Feb 17 2020, 03:31:34) *
Третьесорт, на раз послушать можно.

А вот и нет (IMG:style_emoticons/default/bye.gif)
Go to the top of the page
  Insert nick Quick quote
+Quote Post
post Feb 18 2020, 14:30:37
Post #5

Три Литра
***
Group: Завсегдатай
Posts: 271
Releases: 0
From: Лыткарино
On Forums: 10 months 3 weeks
Thanks: 62 time(s)
Russian Federation


Скучная невыразительная музыка. Действительно на один раз.
Go to the top of the page
  Insert nick Quick quote
+Quote Post

Reply to this topicStart new topic
1 User(s) are reading this topic (1 Guests and 0 Anonymous Users)
0 Members:

 



- Lo-Fi Version Support form
Copyrights and abuse reports form
Time is now: 7th April 2020 - 05:12:25