Welcome Guest ( Log In | Register )

 
Reply to this topicStart new topic
> The Massacre Cave - Godlust (2020), Progressive Heavy/Thrash Metal
post Feb 14 2020, 06:45:48
Post #1

Правь статус, ####!111
**************
Group: Металариец
Posts: 23,251
Releases: 16229
From: Г.Харьков
On Forums: 8 years 4 months
Thanks: 303011 time(s)
Unknown


(IMG:http://metalarea.org/images/audiocovers/2020_Feb/acov_tid333783_thumb.jpg)

*Artist: The Massacre Cave
*Album: Godlust
*Year: 2020
*Genre: Progressive Heavy/Thrash Metal
*Country: United Kingdom (IMG:http://metalarea.org/forum/style_images/flags/United%20Kingdom.png)
*Format: mp3@CBR320kbps
*Size: 94MB

Tracklist:
1. We Own the Sun 04:42
2. From the Mountains 05:58
3. An Itchy Finger 03:43
4. Tetramethrin 06:32
5. Godfrey 02:05
6. Fighting Giants 05:35
7. Red Death 02:57
8. Godlust 08:46
******************************
Total playing time: 40:18




Extended info
Joe Cormack - Vocals/Guitar
Ben Cormack -Vocals/Guitar
Jodie Bremaneson - Bass
Pete Colquhoun - Drums


Technical info
(IMG:http://metalarea.org/images/spectrogram/2020_Feb/fa8f7f513d491f1bc2aeb6ef50e5e187.png)
Input File: 04 - Tetramethrin.mp3
Channels : 2
Sample Rate : 44100
Precision : 16-bit
Duration : 00:06:33.01 = 17331785 samples = 29475.8 CDDA sectors
File Size : 15.9M
Bit Rate : 324k
Sample Encoding: MPEG audio (layer I, II or III)
Comments :
Title=Tetramethrin
Artist=The Massacre Cave
Album=Godlust
Tracknumber=4
Year=2020



Register


Go to the top of the page
  Insert nick Quick quote
+Quote Post

Reply to this topicStart new topic
1 User(s) are reading this topic (1 Guests and 0 Anonymous Users)
0 Members:

 



- Lo-Fi Version Support form
Copyrights and abuse reports form
Time is now: 27th September 2020 - 12:35:21