Welcome Guest ( Log In | Register )

> Releases Upload / Добавление релизов

Добавить релиз тут / Click here to add release
Рекомендованные обменники / Recommended file shares

> Psykotribe - The Devil's Complex (2020), Modern Death/Thrash Metal
post Feb 14 2020, 07:02:58
Post #1

Правь статус, ####!111
**************
Group: Металариец
Posts: 21,289
Releases: 14570
From: Г.Харьков
On Forums: 7 years 10 months
Thanks: 260187 time(s)
Unknown


(IMG:http://metalarea.org/images/audiocovers/2020_Feb/acov_tid333784_thumb.jpg)

*Artist: Psykotribe
*Album: The Devil's Complex
*Year: 2020
*Genre: Modern Death/Thrash Metal
*Country: United States (IMG:http://metalarea.org/forum/style_images/flags/United%20States.png)
*Format: mp3@CBR320kbps
*Size: 94MB

Tracklist:
01. Live eviL
02. Lord of Death
03. Faceless Killers
04. Devil’s Complex
05. Left Behind
06. Take Control
07. End It
08. Vengeance
09. Wicked White Lies
10. River of Knives
******************************
Total playing time: 40:52



Extended info
Dana Darkly ~ Vocals
Jakob Sin ~ Vocals
Chris Lewis ~ Lead Guitar
John Williams ~ Lead Guitar
Jamez Madness ~ Rhythm Guitar
Chad Zielesch ~ Bass
Adam Zielesch ~ Drums


Technical info
(IMG:http://metalarea.org/images/spectrogram/2020_Feb/d5dc07407a1ea1b50b050ac10a6d7094.png)
Input File: 02. Lord of Death.mp3
Channels : 2
Sample Rate : 44100
Precision : 16-bit
Duration : 00:04:58.21 = 13150929 samples = 22365.5 CDDA sectors
File Size : 12.0M
Bit Rate : 322k
Sample Encoding: MPEG audio (layer I, II or III)
Comments :
Title=Lord of Death
Artist=Psykotribe
Album=The Devil's Complex
Tracknumber=2
Year=2020
Discnumber=1



Register


Go to the top of the page
  Insert nick Quick quote
+Quote Post
 
Start new topic
Replies (1 - 2)
post Feb 17 2020, 11:21:05
Post #2

Ъ
**************
Group: Металариец
Posts: 10,018
Releases: 9
On Forums: 11 years 2 months
Thanks: 1989 time(s)
Sweden


Третьесорт.
Go to the top of the page
  Insert nick Quick quote
+Quote Post
post Feb 17 2020, 14:16:23
Post #3

Три Литра
***
Group: Завсегдатай
Posts: 271
Releases: 0
From: Лыткарино
On Forums: 10 months 3 weeks
Thanks: 62 time(s)
Russian Federation


Да, скучный весьма альбом.
Go to the top of the page
  Insert nick Quick quote
+Quote Post

Reply to this topicStart new topic
1 User(s) are reading this topic (1 Guests and 0 Anonymous Users)
0 Members:

 



- Lo-Fi Version Support form
Copyrights and abuse reports form
Time is now: 7th April 2020 - 05:40:38