Welcome Guest ( Log In | Register )

 
Reply to this topicStart new topic
> Beast Within The Sound - Propulsion Of War [ep] (2018), Groove Metal/Metalcore
post Feb 14 2020, 07:39:33
Post #1

Правь статус, ####!111
**************
Group: Металариец
Posts: 6,526
Releases: 6012
From: Lithuania
On Forums: 13 years 9 months
Thanks: 45357 time(s)
Lithuania


(IMG:https://metalarea.org/images/audiocovers/2020_Feb/acov_tid333785_thumb.jpg)

*Artist: Beast Within The Sound
*Album: Propulsion Of War [ep]
*Year: 2018
*Genre: Groove Metal/Metalcore
*Country: Czech Republic (IMG:https://metalarea.org/forum/style_images/flags/Czech%20Republic.png)
*Format: mp3@VBR150kbps (IMG:https://metalarea.org/images/bit_low.gif)
*Size: 27MB

Tracklist:
1. Propulsion of War
2. We Are Humans
3. Smelly Words
4. Ignite the Bridge
5. Sea of Blood (The Exploited Cover)
******************************
Total playing time: 24:39

Bandzone


Technical info
(IMG:https://metalarea.org/images/spectrogram/2020_Feb/863d2b780dc947619145fa726ecbc8b4.png)
Input File: 02 We Are Humans.mp3
Channels : 2
Sample Rate : 44100
Precision : 16-bit
Duration : 00:05:16.67 = 13964971 samples = 23750 CDDA sectors
File Size : 6.01M
Bit Rate : 152k
Sample Encoding: MPEG audio (layer I, II or III)
Comments :
Title=02 We Are Humans
Artist=Beast Within The Sound
Album=Propulsion of War
Tracknumber=2/5
Year=2018
Genre=9



Register


Thanks:
Go to the top of the page
  Insert nick Quick quote
+Quote Post

Reply to this topicStart new topic
1 User(s) are reading this topic (1 Guests and 0 Anonymous Users)
0 Members:

 



- Lo-Fi Version Support form
Copyrights and abuse reports form
Time is now: 4th August 2020 - 12:09:17