Welcome Guest ( Log In | Register )

 
Reply to this topicStart new topic
> Beast Within The Sound - ... And Vice Versa (2018), Groove Metal/Metalcore
post Feb 14 2020, 07:44:51
Post #1

Правь статус, ####!111
**************
Group: Металариец
Posts: 6,526
Releases: 6012
From: Lithuania
On Forums: 13 years 9 months
Thanks: 45357 time(s)
Lithuania


(IMG:https://metalarea.org/images/audiocovers/2020_Feb/acov_tid333786_thumb.jpg)

*Artist: Beast Within The Sound
*Album: ... And Vice Versa
*Year: 2018
*Genre: Groove Metal/Metalcore
*Country: Czech Republic (IMG:https://metalarea.org/forum/style_images/flags/Czech%20Republic.png)
*Format: mp3@CBR192kbps
*Size: 71MB

Tracklist:
1. Cisplatin
2. ... and Vice Versa
3. The Ordeal
4. Esprit de Corps
5. 52116
6. ScapeGoat
7. Metal Is Texas
8. About the Truth and Love
9. Pros'n'Cons
10. Behind the Gravestones
11. If I Were Me
12. Winter Gates
13. The Beacon
******************************
Total playing time: 51:53

Bandzone


Technical info
(IMG:https://metalarea.org/images/spectrogram/2020_Feb/1f2f86061d8f8dc4169ec4f5585ef9c2.png)
Input File: 02 ...And Vice Versa.mp3
Channels : 2
Sample Rate : 44100
Precision : 16-bit
Duration : 00:04:45.36 = 12584420 samples = 21402.1 CDDA sectors
File Size : 6.84M
Bit Rate : 192k
Sample Encoding: MPEG audio (layer I, II or III)
Comments :
Artist=Beast Within The Sound
Album=...And Vice Versa
Year=2018
Genre=Metal



Register


Thanks:
Go to the top of the page
  Insert nick Quick quote
+Quote Post

Reply to this topicStart new topic
1 User(s) are reading this topic (1 Guests and 0 Anonymous Users)
0 Members:

 



- Lo-Fi Version Support form
Copyrights and abuse reports form
Time is now: 4th August 2020 - 12:33:13