Welcome Guest ( Log In | Register )

> Releases Upload / Добавление релизов

Добавить релиз тут / Click here to add release
Рекомендованные обменники / Recommended file shares

> Psychopath - Teratogenesis (2020), Blackened Thrash/Speed Metal
post Feb 14 2020, 09:24:33
Post #1

Правь статус, ####!111
**************
Group: Металариец
Posts: 21,289
Releases: 14570
From: Г.Харьков
On Forums: 7 years 10 months
Thanks: 260169 time(s)
Unknown


(IMG:http://metalarea.org/images/audiocovers/2020_Feb/acov_tid333787_thumb.jpg)

*Artist: Psychopath
*Album: Teratogenesis
*Year: 2020
*Genre: Blackened Thrash/Speed Metal
*Country: Malta (IMG:http://metalarea.org/forum/style_images/flags/Malta.png)
*Format: mp3@CBR320kbps
*Size: 78MB

Tracklist:
01. Awakening 01:13
02. Psychopath 03:41
03. Warganisation 04:03
04. The Vile Invention of Christianity 03:21
05. Teratogenesis 03:57
06. The Purpose of the Pit 03:30
07. Chaos Metal 03:28
08. Living Evil 04:37
09. Tsar Bomba 04:11
10. Reaper 02:39
******************************
Total playing time: 34:40




Technical info
(IMG:http://metalarea.org/images/spectrogram/2020_Feb/f37e39d2e3d36e6b2fff58f18c184156.png)
Input File: 03 - Warganisation.mp3
Channels : 2
Sample Rate : 44100
Precision : 16-bit
Duration : 00:04:03.60 = 10742760 samples = 18270 CDDA sectors
File Size : 9.75M
Bit Rate : 320k
Sample Encoding: MPEG audio (layer I, II or III)
Comments :
Title=Warganisation
Artist=Psychopath
Album=Teratogenesis
Tracknumber=3
Year=2020
Genre=Metal



Register


Go to the top of the page
  Insert nick Quick quote
+Quote Post
 
Start new topic
Replies (1 - 1)
post Feb 14 2020, 14:07:31
Post #2

hearer & reader
**************
Group: Металариец
Posts: 8,513
Releases: 131
From: Moscow
On Forums: 12 years 6 months
Thanks: 8370 time(s)
Russian Federation




Хорошо жужжит парень (IMG:style_emoticons/default/20.gif)


Thanks:
Go to the top of the page
  Insert nick Quick quote
+Quote Post

Reply to this topicStart new topic
1 User(s) are reading this topic (1 Guests and 0 Anonymous Users)
0 Members:

 



- Lo-Fi Version Support form
Copyrights and abuse reports form
Time is now: 7th April 2020 - 04:12:20