Welcome Guest ( Log In | Register )

> Releases Upload / Добавление релизов

Добавить релиз тут / Click here to add release
Рекомендованные обменники / Recommended file shares

 
Reply to this topicStart new topic
> Betrayal Crimson - Aeternum Vale [ep] (2019), Melodic/Technical Death Metal
post Feb 14 2020, 10:03:20
Post #1

Правь статус, ####!111
**************
Group: Металариец
Posts: 6,376
Releases: 5876
From: Lithuania
On Forums: 13 years 6 months
Thanks: 43641 time(s)
Lithuania


(IMG:https://metalarea.org/images/audiocovers/2020_Feb/acov_tid333789_thumb.jpg)

*Artist: Betrayal Crimson
*Album: Aeternum Vale [ep]
*Year: 2019
*Genre: Melodic/Technical Death Metal
*Country: Indonesia (IMG:https://metalarea.org/forum/style_images/flags/Indonesia.png)
*Format: mp3@VBR278kbps
*Size: 31MB

Tracklist:
1. Songgigato 03:00
2. Aeternum Vale 06:24
3. The Last Sunrise 05:52
******************************
Total playing time: 15:16




Technical info
(IMG:https://metalarea.org/images/spectrogram/2020_Feb/df8f062239cf797000043b8542f15855.png)
Input File: 02 Aeternum Vale.mp3
Channels : 2
Sample Rate : 44100
Precision : 16-bit
Duration : 00:06:24.05 = 16936693 samples = 28803.9 CDDA sectors
File Size : 13.5M
Bit Rate : 281k
Sample Encoding: MPEG audio (layer I, II or III)
Comments :
Title=Aeternum Vale
Artist=Betrayal Crimson
Album=Aeternum Vale
Tracknumber=2
Year=2019
Genre=9



Register


Go to the top of the page
  Insert nick Quick quote
+Quote Post

Reply to this topicStart new topic
1 User(s) are reading this topic (1 Guests and 0 Anonymous Users)
0 Members:

 



- Lo-Fi Version Support form
Copyrights and abuse reports form
Time is now: 7th April 2020 - 04:50:06