Welcome Guest ( Log In | Register )

 
Reply to this topicStart new topic
> Blasphemous Division - Regiments Of Chaos [demo] (2016), Black/Death Metal
post Feb 14 2020, 10:24:59
Post #1

Правь статус, ####!111
**************
Group: Металариец
Posts: 6,388
Releases: 5880
From: Lithuania
On Forums: 13 years 6 months
Thanks: 43683 time(s)
Lithuania


(IMG:https://metalarea.org/images/audiocovers/2020_Feb/acov_tid333790_thumb.jpg)

*Artist: Blasphemous Division
*Album: Regiments Of Chaos [demo]
*Year: 2016
*Genre: Black/Death Metal
*Country: Peru (IMG:https://metalarea.org/forum/style_images/flags/Peru.png)
*Format: mp3@VBR128kbps (IMG:https://metalarea.org/images/bit_low.gif)
*Size: 13MB

Tracklist:
1. Intronomicon 02:52 (instrumental)
2. Pits of Blasphemy 03:43
3. Demoniacal Ascendancy 03:26
4. Sang Real 02:13
5. Gates to Gehenna 01:29 (instrumental)
******************************
Total playing time: 13:43




Technical info
(IMG:https://metalarea.org/images/spectrogram/2020_Feb/06beff2ad71a3ec9654714dcf56f7972.png)
Input File: 2.- Pits of Blasphemy.mp3
Channels : 2
Sample Rate : 44100
Precision : 16-bit
Duration : 00:03:43.18 = 9842414 samples = 16738.8 CDDA sectors
File Size : 3.57M
Bit Rate : 128k
Sample Encoding: MPEG audio (layer I, II or III)
Comments :
Artist=Blasphemous Division
Album=Regiments of Chaos
Year=2016
Genre=9



Register


Go to the top of the page
  Insert nick Quick quote
+Quote Post

Reply to this topicStart new topic
1 User(s) are reading this topic (1 Guests and 0 Anonymous Users)
0 Members:

 



- Lo-Fi Version Support form
Copyrights and abuse reports form
Time is now: 10th April 2020 - 12:20:36