Welcome Guest ( Log In | Register )

 
Reply to this topicStart new topic
> Osiris - Forced Insanity [demo] (1989), Heavy/Thrash Metal (D13)
post Feb 14 2020, 10:33:55
Post #1

Подвал
**************
Group: Металариец
Posts: 14,656
Releases: 8300
From: Far East (Khabarovsk)
On Forums: 11 years 4 months
Thanks: 86061 time(s)
Russian Federation


(IMG:http://metalarea.org/images/audiocovers/2020_Feb/acov_tid333792_thumb.jpg)

*Artist: Osiris
*Album: Forced Insanity [demo]
*Year: 1989
*Genre: Heavy/Thrash Metal
*Country: Norway (IMG:http://metalarea.org/forum/style_images/flags/Norway.png)
*Format: mp3@VBR157kbps (IMG:http://metalarea.org/images/bit_low.gif)
*Size: 29MB

Tracklist:
1. Megaforce (Instrumental) 03:54
2. Nostradamus 04:19
3. The End 05:32
4. A.F.O.B. 04:05
5. Forced Insanity 04:39
6. En Øl Til (Another Beer) 03:39
******************************
Total playing time: 26:08



Technical info
(IMG:http://metalarea.org/images/spectrogram/2020_Feb/d212f591a7326b33aad8c4a0a913bd70.png)
Input File: 02-Nostradamus.mp3
Channels : 2
Sample Rate : 44100
Precision : 16-bit
Duration : 00:04:18.12 = 11382872 samples = 19358.6 CDDA sectors
File Size : 4.92M
Bit Rate : 152k
Sample Encoding: MPEG audio (layer I, II or III)
Comments :
Title=Nostradamus
Artist=Osiris (Nor)
Album=Forced Insanity (Demo)
Tracknumber=02
Year=1989
Genre=Metal



Register


Go to the top of the page
  Insert nick Quick quote
+Quote Post

Reply to this topicStart new topic
2 User(s) are reading this topic (2 Guests and 0 Anonymous Users)
0 Members:

 



- Lo-Fi Version Support form
Copyrights and abuse reports form
Time is now: 3rd June 2020 - 20:34:15