Welcome Guest ( Log In | Register )

 
Reply to this topicStart new topic
> Osiris - Aspects Of Reality [demo] (1991), Thrash Metal (D13)
post Feb 14 2020, 11:06:11
Post #1

Подвал
**************
Group: Металариец
Posts: 14,799
Releases: 8389
From: Far East (Khabarovsk)
On Forums: 11 years 5 months
Thanks: 86993 time(s)
Russian Federation


(IMG:http://metalarea.org/images/audiocovers/2020_Feb/acov_tid333793_thumb.jpg)

*Artist: Osiris
*Album: Aspects Of Reality [demo]
*Year: 1991
*Genre: Thrash Metal
*Country: Norway (IMG:http://metalarea.org/forum/style_images/flags/Norway.png)
*Format: mp3@CBR192kbps
*Size: 25MB

Tracklist:
1. Lebenesborn 04:43
2. Adjust 04:43
3. Nobody Wants Youth 05:35
4. Brainfade 04:08
******************************
Total playing time: 19:09



Technical info
(IMG:http://metalarea.org/images/spectrogram/2020_Feb/679fcc550c69c5bad54b9830cd2d13a1.png)
Input File: 01-Lebensborn.mp3
Channels : 2
Sample Rate : 44100
Precision : 16-bit
Duration : 00:04:43.63 = 12507863 samples = 21271.9 CDDA sectors
File Size : 6.81M
Bit Rate : 192k
Sample Encoding: MPEG audio (layer I, II or III)
Comments :
Title=Lebensborn
Artist=Osiris (Nor)
Album=Aspects of Reality (Demo)
Tracknumber=01
Year=1991
Genre=Thrash Metal



Register


Go to the top of the page
  Insert nick Quick quote
+Quote Post

Reply to this topicStart new topic
1 User(s) are reading this topic (1 Guests and 0 Anonymous Users)
0 Members:

 



- Lo-Fi Version Support form
Copyrights and abuse reports form
Time is now: 11th July 2020 - 03:34:07