Welcome Guest ( Log In | Register )

> Releases Upload / Добавление релизов

Добавить релиз тут / Click here to add release
Рекомендованные обменники / Recommended file shares

> Oracle - Selah (1992), Heavy Metal
post Feb 14 2020, 11:21:41
Post #1

Подвал
**************
Group: Металариец
Posts: 14,170
Releases: 8022
From: Far East (Khabarovsk)
On Forums: 11 years 3 weeks
Thanks: 79211 time(s)
Russian Federation


(IMG:http://metalarea.org/images/audiocovers/2020_Feb/acov_tid333794_thumb.jpg)

*Artist: Oracle
*Album: Selah
*Year: 1992
*Genre: Heavy Metal
*Country: United States (IMG:http://metalarea.org/forum/style_images/flags/United%20States.png)
*Format: mp3@CBR320kbps
*Size: 70MB

Tracklist:
1. Passage Denied 05:32
2. Harlots Destiny 04:27
3. Witches And Warlocks 06:04
4. The Purging Fire 03:52
5. Desolate Kings 03:17
6. Legion 06:53
7. Rebecca (Instrumental) 01:42
******************************
Total playing time: 31:47

(IMG:http://metalarea.org/images/myspace.png)

Extended info
Band from Greensboro, North Carolina.


Technical info
(IMG:http://metalarea.org/images/spectrogram/2020_Feb/801bf7779702c20c2e49649c05c92561.png)
Input File: 01-Passage Denied.mp3
Channels : 2
Sample Rate : 44100
Precision : 16-bit
Duration : 00:05:32.90 = 14680846 samples = 24967.4 CDDA sectors
File Size : 13.3M
Bit Rate : 320k
Sample Encoding: MPEG audio (layer I, II or III)
Comments :
Title=Passage Denied
Artist=Oracle
Album=Selah
Tracknumber=1
Year=1992
Genre=Heavy Metal



Register


Go to the top of the page
  Insert nick Quick quote
+Quote Post
 
Start new topic
Replies (1 - 3)
post Feb 14 2020, 13:57:07
Post #2

hearer & reader
**************
Group: Металариец
Posts: 8,375
Releases: 116
From: Moscow
On Forums: 12 years 5 months
Thanks: 8009 time(s)
Russian Federation




Хороший хэви.
Но лучше уж сразу - Oracle - Desolate Kings: The Oracle Anthology [best of/compilation] (2010)


Thanks:
Go to the top of the page
  Insert nick Quick quote
+Quote Post
post Feb 14 2020, 16:40:43
Post #3

тебе 29, а ты все реверсами балуешься
***********
Group: Металариец
Posts: 1,859
Releases: 4
On Forums: 11 years 6 months
Thanks: 587 time(s)
Russian Federation


ЦИТАТА(AHBAnep @ Feb 14 2020, 15:57:07) *


Хороший хэви.
Но лучше уж сразу - Oracle - Desolate Kings: The Oracle Anthology [best of/compilation] (2010)


Музло найс но вокал раздражает местами
Go to the top of the page
  Insert nick Quick quote
+Quote Post
post Feb 16 2020, 10:41:50
Post #4

Пять Литров
*****
Group: Металариец
Posts: 456
Releases: 0
On Forums: 14 years 1 month
Thanks: 17 time(s)
Russian Federation


Thank you, classic!
Go to the top of the page
  Insert nick Quick quote
+Quote Post

Reply to this topicStart new topic
1 User(s) are reading this topic (1 Guests and 0 Anonymous Users)
0 Members:

 



- Lo-Fi Version Support form
Copyrights and abuse reports form
Time is now: 21st February 2020 - 22:51:09