Welcome Guest ( Log In | Register )

 
Reply to this topicStart new topic
> Орден - Orden (1990), Heavy Metal
post Feb 14 2020, 11:36:54
Post #1

Подвал
**************
Group: Металариец
Posts: 14,354
Releases: 8131
From: Far East (Khabarovsk)
On Forums: 11 years 2 months
Thanks: 83027 time(s)
Russian Federation


(IMG:http://metalarea.org/images/audiocovers/2020_Feb/acov_tid333795_thumb.jpg)

*Artist: Орден
*Album: Orden
*Year: 1990
*Genre: Heavy Metal
*Country: Russian Federation (IMG:http://metalarea.org/forum/style_images/flags/Russian%20Federation.png)
*Format: mp3@CBR320kbps
*Size: 86MB

Tracklist:
1. Фея 04:05
2. Нищие 03:08
3. Святые Чувства 03:45
4. Геноцид 05:01
5. Флаги На Башнях 04:11
6. Мать-Земля 05:09
7. Сонет 03:13
8. Призрак 04:18
9. Страх 05:04
10. Пропасть 03:49
******************************
Total playing time: 41:43

Extended info
Band from St. Petersburg.


Technical info
(IMG:http://metalarea.org/images/spectrogram/2020_Feb/b2a588a23f62918d73882c6b496b881e.png)
Input File: 01-Фея.mp3
Channels : 2
Sample Rate : 44100
Precision : 16-bit
Duration : 00:04:05.14 = 10810674 samples = 18385.5 CDDA sectors
File Size : 9.81M
Bit Rate : 320k
Sample Encoding: MPEG audio (layer I, II or III)
Comments :
Title=Фея
Artist=Орден (Rus)
Album=Orden
Tracknumber=01
Year=1990
Genre=Heavy Metal



Register


Go to the top of the page
  Insert nick Quick quote
+Quote Post

Reply to this topicStart new topic
1 User(s) are reading this topic (1 Guests and 0 Anonymous Users)
0 Members:

 



- Lo-Fi Version Support form
Copyrights and abuse reports form
Time is now: 8th April 2020 - 06:56:44