Welcome Guest ( Log In | Register )

 
Reply to this topicStart new topic
> Obsecration - I Am An Odious Ghoul [demo] (1996), Death Metal (D)
post Feb 14 2020, 11:45:05
Post #1

Подвал
**************
Group: Металариец
Posts: 14,656
Releases: 8300
From: Far East (Khabarovsk)
On Forums: 11 years 4 months
Thanks: 86060 time(s)
Russian Federation


(IMG:http://metalarea.org/images/audiocovers/2020_Feb/acov_tid333796_thumb.jpg)

*Artist: Obsecration
*Album: I Am An Odious Ghoul [demo]
*Year: 1996
*Genre: Death Metal
*Country: Greece (IMG:http://metalarea.org/forum/style_images/flags/Greece.png)
*Format: mp3@CBR192kbps
*Size: 11MB

Tracklist:
1. I Am An Odious Ghoul 03:57
2. My Vision And My Dream 04:19
******************************
Total playing time: 8:16




Technical info
(IMG:http://metalarea.org/images/spectrogram/2020_Feb/f9bc372886c08a2462ce557cc5c74aff.png)
Input File: 01-I Am An Odious Ghoul.mp3
Channels : 2
Sample Rate : 44100
Precision : 16-bit
Duration : 00:03:57.09 = 10455581 samples = 17781.6 CDDA sectors
File Size : 5.69M
Bit Rate : 192k
Sample Encoding: MPEG audio (layer I, II or III)
Comments :
Title=I Am An Odious Ghoul
Artist=Obsecration
Album=I Am an Odious Ghoul (Demo)
Tracknumber=01
Year=1996
Genre=22



Register


Go to the top of the page
  Insert nick Quick quote
+Quote Post

Reply to this topicStart new topic
1 User(s) are reading this topic (1 Guests and 0 Anonymous Users)
0 Members:

 



- Lo-Fi Version Support form
Copyrights and abuse reports form
Time is now: 3rd June 2020 - 19:23:02