Welcome Guest ( Log In | Register )

 
Reply to this topicStart new topic
> Bloodlad - Somewhere Deep Inside The Dark [demo] (2016), Progressive Melodic Death Metal
post Feb 14 2020, 13:02:24
Post #1

Правь статус, ####!111
**************
Group: Металариец
Posts: 6,526
Releases: 6012
From: Lithuania
On Forums: 13 years 10 months
Thanks: 45367 time(s)
Lithuania


(IMG:https://metalarea.org/images/audiocovers/2020_Feb/acov_tid333797_thumb.jpg)

*Artist: Bloodlad
*Album: Somewhere Deep Inside The Dark [demo]
*Year: 2016
*Genre: Progressive Melodic Death Metal
*Country: Indonesia (IMG:https://metalarea.org/forum/style_images/flags/Indonesia.png)
*Format: mp3@CBR320kbps
*Size: 51MB

Tracklist:
1. Tomino's Hell 06:18
2. Ascension 08:27
3. Dark Entries 07:18
******************************
Total playing time: 22:03




Technical info
(IMG:https://metalarea.org/images/spectrogram/2020_Feb/b582b1b34e1454c8ff49ce4479ad5648.png)
Input File: 02. Ascension.mp3
Channels : 2
Sample Rate : 44100
Precision : 16-bit
Duration : 00:08:26.84 = 22351600 samples = 38012.9 CDDA sectors
File Size : 20.6M
Bit Rate : 325k
Sample Encoding: MPEG audio (layer I, II or III)
Comments :
Title=Ascension
Artist=Bloodlad
Album=Somewhere Deep Inside the Dark
Tracknumber=02.
Year=2016
Genre=Metal



Register


Go to the top of the page
  Insert nick Quick quote
+Quote Post

Reply to this topicStart new topic
1 User(s) are reading this topic (1 Guests and 0 Anonymous Users)
0 Members:

 



- Lo-Fi Version Support form
Copyrights and abuse reports form
Time is now: 10th August 2020 - 12:00:36