Welcome Guest ( Log In | Register )

 
Reply to this topicStart new topic
> Dakeltun - Pacto [ep] (2017), Melodic Death/Thrash Metal
post Feb 14 2020, 13:33:27
Post #1

Правь статус, ####!111
**************
Group: Металариец
Posts: 6,376
Releases: 5876
From: Lithuania
On Forums: 13 years 6 months
Thanks: 43643 time(s)
Lithuania


(IMG:https://metalarea.org/images/audiocovers/2020_Feb/acov_tid333798_thumb.jpg)

*Artist: Dakeltun
*Album: Pacto [ep]
*Year: 2017
*Genre: Melodic Death/Thrash Metal
*Country: Chile (IMG:https://metalarea.org/forum/style_images/flags/Chile.png)
*Format: mp3@VBR147kbps (IMG:https://metalarea.org/images/bit_low.gif)
*Size: 19MB

Tracklist:
1. Tu ruina te sostiene 04:19
2. Feto muerto 03:35
3. Rito sexual 06:05
4. Fe-dofilia 03:45
******************************
Total playing time: 17:44


(IMG:https://metalarea.org/images/youtube.png)

Technical info
(IMG:https://metalarea.org/images/spectrogram/2020_Feb/45b11af599a2121851acf3f21723c1da.png)
Input File: 02 - Feto Muerto.mp3
Channels : 2
Sample Rate : 44100
Precision : 16-bit
Duration : 00:03:35.87 = 9519691 samples = 16190 CDDA sectors
File Size : 4.38M
Bit Rate : 162k
Sample Encoding: MPEG audio (layer I, II or III)
Comments :
Title=Feto Muerto
Artist=Dakeltun
Album=Pacto
Tracknumber=2/5
Year=2017
Genre=9



Register


Go to the top of the page
  Insert nick Quick quote
+Quote Post

Reply to this topicStart new topic
1 User(s) are reading this topic (1 Guests and 0 Anonymous Users)
0 Members:

 



- Lo-Fi Version Support form
Copyrights and abuse reports form
Time is now: 8th April 2020 - 07:22:43