Welcome Guest ( Log In | Register )

> Releases Upload / Добавление релизов

Добавить релиз тут / Click here to add release
Рекомендованные обменники / Recommended file shares

> Ossaert - Bedehuis (2020), Atmospheric Black Metal
post Feb 14 2020, 13:49:08
Post #1

Маньяк
**********
Group: Металариец
Posts: 1,013
Releases: 183
On Forums: 11 years 4 months
Thanks: 3615 time(s)
Russian Federation


(IMG:http://metalarea.org/images/audiocovers/2020_Feb/acov_tid333799_thumb.jpg)

*Artist: Ossaert
*Album: Bedehuis
*Year: 2020
*Genre: Atmospheric Black Metal
*Country: Netherlands (IMG:http://metalarea.org/forum/style_images/flags/Netherlands.png)
*Format: mp3@CBR320kbps
*Size: 78MB

Tracklist:
01. I 08:35
02. II 07:51
03. III 08:05
04. IV 09:30
******************************
Total playing time: 34:01



Extended info


Music & Lyrics written by Ossaert
Artwork by Reuben Sawyer

P. - Bass, Guitars, Vocals
W. - Drums

Mixed & Mastered by W. at Catacomben Studio's


Technical info
(IMG:http://metalarea.org/images/spectrogram/2020_Feb/d9a1b55faf4fe963769da30e634a8d32.png)
Input File: 01-I.mp3
Channels : 2
Sample Rate : 44100
Precision : 16-bit
Duration : 00:08:35.14 = 22717674 samples = 38635.5 CDDA sectors
File Size : 20.6M
Bit Rate : 320k
Sample Encoding: MPEG audio (layer I, II or III)
Comments :
Title=I
Artist=Ossaert
Album=Bedehuis
Tracknumber=01/04
Year=2020
Genre=Atmospheric Black Metal



Register


Go to the top of the page
  Insert nick Quick quote
+Quote Post
 
Start new topic
Replies (1 - 1)
post Mar 4 2020, 09:09:48
Post #2

Маньяк
**********
Group: Металариец
Posts: 1,013
Releases: 183
On Forums: 11 years 4 months
Thanks: 3615 time(s)
Russian Federation


FLAC tracks
Register


Thanks:
Go to the top of the page
  Insert nick Quick quote
+Quote Post

Reply to this topicStart new topic
1 User(s) are reading this topic (1 Guests and 0 Anonymous Users)
0 Members:

 



- Lo-Fi Version Support form
Copyrights and abuse reports form
Time is now: 31st March 2020 - 20:40:13