Welcome Guest ( Log In | Register )

> Releases Upload / Добавление релизов

Добавить релиз тут / Click here to add release
Рекомендованные обменники / Recommended file shares

 
Reply to this topicStart new topic
> Exodium - Anima (2019), Heavy Metal
post Feb 14 2020, 13:51:55
Post #1

Serial Uploader
Group Icon
Group: V.I.P
Posts: 37,016
Releases: 35198
From: Lithuania
On Forums: 11 years 8 months
Thanks: 414707 time(s)
Lithuania


(IMG:https://metalarea.org/images/audiocovers/2020_Feb/acov_tid333800_thumb.png)

*Artist: Exodium
*Album: Anima
*Year: 2019
*Genre: Heavy Metal
*Country: Spain (IMG:https://metalarea.org/forum/style_images/flags/Spain.png)
*Format: mp3@CBR320kbps
*Size: 93MB

Tracklist:
01. Fear of the Unknown 04:09
02. The Nameless Place 04:24
03. Trust the Liar 05:20
04. Your Way 04:04
05. Nothing Remains 04:12
06. Godless 05:16
07. The Plague 03:37
08. Terra Nova 04:57
09. Utopia 04:12
******************************
Total playing time: 40:11


(IMG:https://metalarea.org/images/youtube.png)

Technical info
(IMG:https://metalarea.org/images/spectrogram/2020_Feb/30e5ab547a3f921179e10303d82ae3c3.png)
Input File: 2 - The Nameless Place.mp3
Channels : 2
Sample Rate : 44100
Precision : 16-bit
Duration : 00:04:24.46 = 11662466 samples = 19834.1 CDDA sectors
File Size : 10.7M
Bit Rate : 322k
Sample Encoding: MPEG audio (layer I, II or III)
Comments :
Title=The Nameless Place
Artist=Exodium
Album=Anima
Tracknumber=2
Year=2020
Genre=Heavy Metal
Discnumber=1



Register


Go to the top of the page
  Insert nick Quick quote
+Quote Post

Reply to this topicStart new topic
1 User(s) are reading this topic (1 Guests and 0 Anonymous Users)
0 Members:

 



- Lo-Fi Version Support form
Copyrights and abuse reports form
Time is now: 21st February 2020 - 22:37:12