Welcome Guest ( Log In | Register )

 
Reply to this topicStart new topic
> Depressive Reality - Alone In The Dark World [demo] (1996), Death/Black Metal (D4)
post Feb 14 2020, 14:02:10
Post #1

Правь статус, ####!111
**************
Group: Металариец
Posts: 6,507
Releases: 5997
From: Lithuania
On Forums: 13 years 8 months
Thanks: 44928 time(s)
Lithuania


(IMG:https://metalarea.org/images/audiocovers/2020_Feb/acov_tid333802.jpg)

*Artist: Depressive Reality
*Album: Alone In The Dark World [demo]
*Year: 1996
*Genre: Death/Black Metal
*Country: Czech Republic (IMG:https://metalarea.org/forum/style_images/flags/Czech%20Republic.png)
*Format: mp3@CBR320kbps
*Size: 45MB

Tracklist:
1. Intro/The Loneliness 05:56
2. Poison in Blood 03:57
3. Depressive Reality 03:07 (instrumental)
4. Devil in Priest Gown/Ticket to Hell 06:55
******************************
Total playing time: 19:55

Bandzone
(IMG:https://metalarea.org/images/myspace.png)

Technical info
(IMG:https://metalarea.org/images/spectrogram/2020_Feb/912326d5b8b2a0d328427fdad7a5cf0c.png)
Input File: 02 Poison in Blood.mp3
Channels : 2
Sample Rate : 44100
Precision : 16-bit
Duration : 00:03:54.68 = 10349388 samples = 17601 CDDA sectors
File Size : 9.38M
Bit Rate : 320k
Sample Encoding: MPEG audio (layer I, II or III)
Comments :
Artist=Depressive Reality
Album=Alone in the Dark World
Tracknumber=2
Year=1996
Genre=9



Register


Go to the top of the page
  Insert nick Quick quote
+Quote Post

Reply to this topicStart new topic
1 User(s) are reading this topic (1 Guests and 0 Anonymous Users)
0 Members:

 



- Lo-Fi Version Support form
Copyrights and abuse reports form
Time is now: 4th June 2020 - 21:23:15