Welcome Guest ( Log In | Register )

> Releases Upload / Добавление релизов

Добавить релиз тут / Click here to add release
Рекомендованные обменники / Recommended file shares

 
Reply to this topicStart new topic
> Teratolith - Eclipse I [ep] (2019), Black/Death Metal/Ambient
post Feb 14 2020, 14:14:30
Post #1

Serial Uploader
Group Icon
Group: V.I.P
Posts: 37,016
Releases: 35198
From: Lithuania
On Forums: 11 years 8 months
Thanks: 414707 time(s)
Lithuania


(IMG:https://metalarea.org/images/audiocovers/2020_Feb/acov_tid333803_thumb.jpg)

*Artist: Teratolith
*Album: Eclipse I [ep]
*Year: 2019
*Genre: Black/Death Metal/Ambient
*Country: United States (IMG:https://metalarea.org/forum/style_images/flags/United%20States.png)
*Format: mp3@CBR320kbps
*Size: 55MB

Tracklist:
01. One. Death. 05:56
02. Two. 08:08
03. Three. The Oracle. 05:50
04. Four. Misericordia. 03:02
******************************
Total playing time: 22:56


(IMG:https://metalarea.org/images/youtube.png)

Technical info
(IMG:https://metalarea.org/images/spectrogram/2020_Feb/ff329f07988e38d923c5180fdae4ecd9.png)
Input File: 01. One. Death..mp3
Channels : 2
Sample Rate : 44100
Precision : 16-bit
Duration : 00:05:56.64 = 15727956 samples = 26748.2 CDDA sectors
File Size : 14.3M
Bit Rate : 322k
Sample Encoding: MPEG audio (layer I, II or III)
Comments :
Title=One. Death.
Artist=Teratolith
Album=Eclipse I
Tracknumber=1
Year=2019



Register


Go to the top of the page
  Insert nick Quick quote
+Quote Post

Reply to this topicStart new topic
1 User(s) are reading this topic (1 Guests and 0 Anonymous Users)
0 Members:

 



- Lo-Fi Version Support form
Copyrights and abuse reports form
Time is now: 21st February 2020 - 22:58:13