Welcome Guest ( Log In | Register )

 
Reply to this topicStart new topic
> Blissful Stream - Ascending Demons [ep] (2016), Doom Metal
post Feb 14 2020, 15:46:33
Post #1

Маньяк
**********
Group: Металариец
Posts: 1,427
Releases: 238
On Forums: 11 years 10 months
Thanks: 4942 time(s)
Russian Federation


(IMG:http://metalarea.org/images/audiocovers/2020_Feb/acov_tid333804_thumb.jpg)

*Artist: Blissful Stream
*Album: Ascending Demons [ep]
*Year: 2016
*Genre: Doom Metal
*Country: Sweden (IMG:http://metalarea.org/forum/style_images/flags/Sweden.png)
*Format: mp3@CBR320kbps
*Size: 35MB

Tracklist:
01. The House On The Hill 05:16
02. Dead Man Walking 03:25
03. Guide Us Home 03:22
04. Ascending Demons 03:01
******************************
Total playing time: 15:04



Extended info


Martin Sällström - vocals, guitars, bass and drums.

All music and lyrics by Blissful Stream except lyrics for The House On The Hill by Edwin Arlington Robinson.
credits
released August 18, 2016

Recorded and mixed by Martin Sällström in Studio Sinnesfrid.

Mastered by Jonsson at Dark Prod Studios.


Technical info
(IMG:http://metalarea.org/images/spectrogram/2020_Feb/f275f3a328f126c98e32b1be8b53d97e.png)
Input File: 04-Ascending Demons.mp3
Channels : 2
Sample Rate : 44100
Precision : 16-bit
Duration : 00:03:01.25 = 7993125 samples = 13593.8 CDDA sectors
File Size : 7.25M
Bit Rate : 320k
Sample Encoding: MPEG audio (layer I, II or III)
Comments :
Title=Ascending Demons
Artist=Blissful Stream
Album=Ascending Demons
Tracknumber=04
Year=2016
Genre=Doom Metal



Register


Go to the top of the page
  Insert nick Quick quote
+Quote Post

Reply to this topicStart new topic
1 User(s) are reading this topic (1 Guests and 0 Anonymous Users)
0 Members:

 



- Lo-Fi Version Support form
Copyrights and abuse reports form
Time is now: 19th September 2020 - 17:01:30