Welcome Guest ( Log In | Register )

 
Reply to this topicStart new topic
> Blissful Stream - Dead Religious [ep] (2018), Doom Metal
post Feb 14 2020, 15:53:49
Post #1

Маньяк
**********
Group: Металариец
Posts: 1,427
Releases: 238
On Forums: 11 years 10 months
Thanks: 4942 time(s)
Russian Federation


(IMG:http://metalarea.org/images/audiocovers/2020_Feb/acov_tid333805_thumb.jpg)

*Artist: Blissful Stream
*Album: Dead Religious [ep]
*Year: 2018
*Genre: Doom Metal
*Country: Sweden (IMG:http://metalarea.org/forum/style_images/flags/Sweden.png)
*Format: mp3@CBR320kbps
*Size: 35MB

Tracklist:
01. Downfall 04:02
02. Into the Abyss 02:30
03. Dead Religious 02:50
04. Black Ships 04:41
******************************
Total playing time: 14:03


Preview 2

Extended info


Sounds and layout by Martin Sällström.
Recorded and mixed in Studio Sinnesfrid.


Technical info
(IMG:http://metalarea.org/images/spectrogram/2020_Feb/ed41f6d42f2359ac21fe9e384a38838a.png)
Input File: 04-Black Ships.mp3
Channels : 2
Sample Rate : 44100
Precision : 16-bit
Duration : 00:04:42.04 = 12437788 samples = 21152.7 CDDA sectors
File Size : 11.3M
Bit Rate : 320k
Sample Encoding: MPEG audio (layer I, II or III)
Comments :
Title=Black Ships
Artist=Blissful Stream
Album=Dead Religious
Tracknumber=04
Year=2018
Genre=Doom Metal



Register


Go to the top of the page
  Insert nick Quick quote
+Quote Post

Reply to this topicStart new topic
1 User(s) are reading this topic (1 Guests and 0 Anonymous Users)
0 Members:

 



- Lo-Fi Version Support form
Copyrights and abuse reports form
Time is now: 19th September 2020 - 17:16:59