Welcome Guest ( Log In | Register )

> Releases Upload / Добавление релизов

Добавить релиз тут / Click here to add release
Рекомендованные обменники / Recommended file shares

> Gateway To Selfdestruction - Sanctus : Mater : Scortum (2020), Atmospheric/Depressive Black Metal
post Feb 14 2020, 16:41:53
Post #1

Правь статус, ####!111
**************
Group: Металариец
Posts: 4,221
Releases: 1143
From: Brazil
On Forums: 8 years 3 weeks
Thanks: 42434 time(s)
Brazil


(IMG:http://metalarea.org/images/audiocovers/2020_Feb/acov_tid333806_thumb.jpg)

*Artist: Gateway To Selfdestruction
*Album: Sanctus : Mater : Scortum
*Year: 2020
*Genre: Atmospheric/Depressive Black Metal
*Country: Germany (IMG:http://metalarea.org/forum/style_images/flags/Germany.png)
*Format: mp3@CBR320kbps
*Size: 132MB

Tracklist:
1. Void
2. The Red Thread
3. Dark Poetry
4. Negata
5. Mirrors
6. Negative Circles
7. Utopia
******************************
Total playing time: 57:16



Extended info
Gateway to Selfdestruction is an Atmospheric Black Metal band from Germany, formed in 2013. Their debut album „Death, My Salvation“, released by Northern Silence in 2016, marked the beginning of the band’s musical output. At the time they had already been active on the live front for quite a while, captivating the audience with their sorrowful and haunting creations. The style was very much influenced by Katatonia’s “Brave Murder Day”, so signing the band was a foregone conclusion when the individual behind Northern Silence witnessed one of their fantastic live performances for the first time.

In November 2019 the band entered the studio to record their second album, entitled „Sanctus : Mater : Scortum“. It was once again produced by Patrick W. Engel at Temple Of Disharmony and will be released on CD and digitally on February 21st.

The concept behind the album delves into the power struggle between the child and the motherly, pathologic presence of a woman suffering from mental illness, whose self-destructive behavior is expressed through child abuse, perversions and prostitution in both obvious and hidden ways. The conceptual layout of the CD shows her pathology and the different roles she is driven to play in her life – the loving mother to the casual observer, the whore in secret, the Madonna as the highest aspiration which she struggles to reclaim.

Musically, Gateway to Selfdestruction went from the Depressive Black Metal with atmospheric Doom influences of earlier days to a more Progressive Extreme Metal sound with extensive use of clean guitars, guitar solos, different vocal styles, clean vocals, choirs and extreme screams. Influences range from old Katatonia to more contemporary acts such as Shining, Woods of Desolation, Ghost Brigade and Antimatter.


Technical info
(IMG:http://metalarea.org/images/spectrogram/2020_Feb/4f2f3590a55a276c923caa02d27cd9bd.png)
Input File: 01 Void.mp3
Channels : 2
Sample Rate : 44100
Precision : 16-bit
Duration : 00:09:14.09 = 24435237 samples = 41556.5 CDDA sectors
File Size : 22.2M
Bit Rate : 320k
Sample Encoding: MPEG audio (layer I, II or III)
Comments :
Title=Void
Artist=Gateway to Selfdestruction
Album=Sanctus : Mater : Scortum
Tracknumber=1
Year=2020



Register


Go to the top of the page
  Insert nick Quick quote
+Quote Post
 
Start new topic
Replies (1 - 3)
post Feb 15 2020, 07:07:04
Post #2

Шесть Литров
******
Group: Металариец
Posts: 523
Releases: 0
From: Цимлянск
On Forums: 5 years 8 months
Thanks: 98 time(s)
Russian Federation


Female fronted!
Go to the top of the page
  Insert nick Quick quote
+Quote Post
post Feb 17 2020, 17:19:49
Post #3

Правь статус, ####!111
**************
Group: Металариец
Posts: 2,852
Releases: 8
From: Dnipro
On Forums: 11 years 7 months
Thanks: 907 time(s)
Ukraine


Хороший альбом, учащий добру и справедливости (IMG:style_emoticons/default/smile3.gif)
Go to the top of the page
  Insert nick Quick quote
+Quote Post
post Yesterday, 15:41:05
Post #4

Group: Подсевший
Posts: 28
Releases: 0
On Forums: 1 day 10 hours
Thanks: 13 time(s)
Unknown


Действительно хороший альбом на стыке Atmospheric и Depressive Black Metal
Фронтвумен старается изо всех сил и ей веришь
Go to the top of the page
  Insert nick Quick quote
+Quote Post

Reply to this topicStart new topic
1 User(s) are reading this topic (1 Guests and 0 Anonymous Users)
0 Members:

 



- Lo-Fi Version Support form
Copyrights and abuse reports form
Time is now: 21st February 2020 - 23:10:23