Welcome Guest ( Log In | Register )

 
Reply to this topicStart new topic
> Gardenjia - Immortal (2019), Progressive/Experimental Metal (D8)
post Feb 14 2020, 16:46:08
Post #1

hard sci-fi rock
**************
Group: Металариец
Posts: 2,494
Releases: 48
From: Purple sea
On Forums: 2 years 7 months
Thanks: 2602 time(s)
Unknown


(IMG:https://metalarea.org/images/audiocovers/2020_Feb/acov_tid333807_thumb.jpg)

*Artist: Gardenjia
*Album: Immortal
*Year: 2019
*Genre: Progressive/Experimental Metal
*Country: Italy (IMG:https://metalarea.org/forum/style_images/flags/Italy.png)
*Format: mp3@CBR320kbps
*Size: 142MB

Tracklist:
01.Mars 01:17
02.Mars, the bringer of war (inside: Gustav Holst-planets-Mars the bringer of war (cover)) 09:21
03.Jupiter 01:28
04.Immortal 10:25
05.Sun 01:02
06.The Bringer Of Light (inside: excerpt from Allan Holdsworth, Shallow sea (cover)) 09:43
07.Earth 01:22
08.Lacrimosa (inside: Lacrimosa from the requiem of Wolfgang Amadeus Mozart (cover)) 09:11
09.Venus 01:18
10.Se la mia morte brami (inside: Gesualdo: Se la mia morte brami (Madrigali d'il libro sesto, 1611(cover)) 09:08
11.Moon 00:41
12.Requiem (inside: Requiem from the Requiem of Wolfgang Amadeus Mozart (cover)) 08:33
******************************
Total playing time: 1:03:29


(IMG:https://metalarea.org/images/youtube.png)

Extended info
Own Purchase


Technical info
(IMG:https://metalarea.org/images/spectrogram/2020_Feb/67ab53a6f2c108ed03484fb8adc56f64.png)
Input File: 04. Immortal.mp3
Channels : 2
Sample Rate : 44100
Precision : 16-bit
Duration : 00:10:26.74 = 27639146 samples = 47005.4 CDDA sectors
File Size : 25.1M
Bit Rate : 320k
Sample Encoding: MPEG audio (layer I, II or III)
Comments :
Title=Immortal
Artist=Gardenjia
Album=Immortal
Tracknumber=04/12
Year=2019
Genre=Metal
Discnumber=1/1



Register


Go to the top of the page
  Insert nick Quick quote
+Quote Post

Reply to this topicStart new topic
1 User(s) are reading this topic (1 Guests and 0 Anonymous Users)
0 Members:

 



- Lo-Fi Version Support form
Copyrights and abuse reports form
Time is now: 19th September 2020 - 15:26:32