Welcome Guest ( Log In | Register )

> Suum - Cryptomass (2020), Doom Metal
post Feb 14 2020, 17:33:08
Post #1

Правь статус, ####!111
**************
Group: Металариец
Posts: 3,026
Releases: 2711
From: Одесса
On Forums: 12 years 3 months
Thanks: 26818 time(s)
Ukraine


(IMG:http://metalarea.org/images/audiocovers/2020_Feb/acov_tid333809_thumb.png)

*Artist: Suum
*Album: Cryptomass
*Year: 2020
*Genre: Doom Metal
*Country: Italy (IMG:http://metalarea.org/forum/style_images/flags/Italy.png)
*Format: mp3@CBR320kbps
*Size: 133MB

Tracklist:
1.Cryptomass 08:47
2.The Silence of Agony 05:17
3.Creatures from the Vault 06:20
4.Funeral Circle 06:23
5.Burial at Night 07:35
6.The Failure of Creation 05:27
7.Mass in the Catacomb 02:21
8.Claws of Evil 04:56
9.Reaper Looks in Your Eyes 08:10
******************************
Total playing time: 55:16



Extended info
Line - up:

Painkiller - Guitars (Fangtooth, Occultator, ex-Exhuman)
Mark Wolf - Vocals (Bretus, Land of Hate, ex-Uranium 235, ex-A Buried Existence, ex-Zora)
Joe Grave - Bass
Fed Kemper - Drums

(IMG:https://www.metal-archives.com/images/3/5/4/0/3540437077_photo.jpg?5745)


Technical info
(IMG:http://metalarea.org/images/spectrogram/2020_Feb/24d993e6ce16c35c2ba29bea979b798f.png)
Input File: 05 - Burial at Night.mp3
Channels : 2
Sample Rate : 44100
Precision : 16-bit
Duration : 00:07:35.37 = 20081729 samples = 34152.6 CDDA sectors
File Size : 18.3M
Bit Rate : 321k
Sample Encoding: MPEG audio (layer I, II or III)
Comments :
Title=Burial At Night
Artist=Suum
Album=Cryptomass
Tracknumber=5
Year=2020
Genre=Doom Metal



Register


Go to the top of the page
  Insert nick Quick quote
+Quote Post
 
Start new topic
Replies (1 - 4)
post May 4 2020, 23:57:12
Post #2

Шесть Литров
******
Group: Металариец
Posts: 603
Releases: 1
From: АР Крым, Симферополь
On Forums: 12 years 5 months
Thanks: 292 time(s)
Russian Federation


Неплохо-неплохо, всё по старинке, старый добрый трад!! ))
Go to the top of the page
  Insert nick Quick quote
+Quote Post
post May 20 2020, 17:50:55
Post #3

Override the Overture
******
Group: Металариец
Posts: 581
Releases: 0
From: Moscow
On Forums: 12 years 8 months
Thanks: 88 time(s)
Russian Federation


вокал зело понравился, самое то в трад (IMG:style_emoticons/default/20.gif)
Go to the top of the page
  Insert nick Quick quote
+Quote Post
post May 20 2020, 18:58:58
Post #4

Восемь Литров
********
Group: Металариец
Posts: 803
Releases: 0
On Forums: 12 years 11 months
Thanks: 353 time(s)
Poland


низкое, глубокое неторопливое звучание гитары, хороший вокал. спасибо за наводку
Go to the top of the page
  Insert nick Quick quote
+Quote Post
post Jul 10 2020, 06:39:50
Post #5

Кожаный ублюдок
**************
Group: Металариец
Posts: 3,266
Releases: 6
From: Алчевск (early) Некросибирск (now)
On Forums: 11 years 4 months
Thanks: 2115 time(s)
Russian Federation


Go to the top of the page
  Insert nick Quick quote
+Quote Post

Reply to this topicStart new topic
1 User(s) are reading this topic (1 Guests and 0 Anonymous Users)
0 Members:

 



- Lo-Fi Version Support form
Copyrights and abuse reports form
Time is now: 1st October 2020 - 08:21:49