Welcome Guest ( Log In | Register )

> Releases Upload / Добавление релизов

Добавить релиз тут / Click here to add release
Рекомендованные обменники / Recommended file shares

 
Reply to this topicStart new topic
> Suum - Cryptomass (2020), Doom Metal
post Feb 14 2020, 17:33:08
Post #1

Каждое ваше "Спасибо" помогает мне понять, что я делаю новости не напрасно.
**************
Group: Металариец
Posts: 2,464
Releases: 2180
From: Одесса
On Forums: 11 years 9 months
Thanks: 20184 time(s)
Ukraine


(IMG:http://metalarea.org/images/audiocovers/2020_Feb/acov_tid333809_thumb.png)

*Artist: Suum
*Album: Cryptomass
*Year: 2020
*Genre: Doom Metal
*Country: Italy (IMG:http://metalarea.org/forum/style_images/flags/Italy.png)
*Format: mp3@CBR320kbps
*Size: 133MB

Tracklist:
1.Cryptomass 08:47
2.The Silence of Agony 05:17
3.Creatures from the Vault 06:20
4.Funeral Circle 06:23
5.Burial at Night 07:35
6.The Failure of Creation 05:27
7.Mass in the Catacomb 02:21
8.Claws of Evil 04:56
9.Reaper Looks in Your Eyes 08:10
******************************
Total playing time: 55:16



Extended info
Line - up:

Painkiller - Guitars (Fangtooth, Occultator, ex-Exhuman)
Mark Wolf - Vocals (Bretus, Land of Hate, ex-Uranium 235, ex-A Buried Existence, ex-Zora)
Joe Grave - Bass
Fed Kemper - Drums

(IMG:https://www.metal-archives.com/images/3/5/4/0/3540437077_photo.jpg?5745)


Technical info
(IMG:http://metalarea.org/images/spectrogram/2020_Feb/24d993e6ce16c35c2ba29bea979b798f.png)
Input File: 05 - Burial at Night.mp3
Channels : 2
Sample Rate : 44100
Precision : 16-bit
Duration : 00:07:35.37 = 20081729 samples = 34152.6 CDDA sectors
File Size : 18.3M
Bit Rate : 321k
Sample Encoding: MPEG audio (layer I, II or III)
Comments :
Title=Burial At Night
Artist=Suum
Album=Cryptomass
Tracknumber=5
Year=2020
Genre=Doom Metal



Register


Go to the top of the page
  Insert nick Quick quote
+Quote Post

Reply to this topicStart new topic
1 User(s) are reading this topic (1 Guests and 0 Anonymous Users)
0 Members:

 



- Lo-Fi Version Support form
Copyrights and abuse reports form
Time is now: 31st March 2020 - 20:48:24