Welcome Guest ( Log In | Register )

> Putreseminal Viscosity - Spectral Rituals Of Malignancy (2020), Brutal Death Metal
post Feb 14 2020, 18:46:45
Post #1

Правь статус, ####!111
**************
Group: Металариец
Posts: 22,225
Releases: 15379
From: Г.Харьков
On Forums: 8 years 1 month
Thanks: 280910 time(s)
Unknown


(IMG:http://metalarea.org/images/audiocovers/2020_Feb/acov_tid333811_thumb.jpg)

*Artist: Putreseminal Viscosity
*Album: Spectral Rituals Of Malignancy
*Year: 2020
*Genre: Brutal Death Metal
*Country: Spain (IMG:http://metalarea.org/forum/style_images/flags/Spain.png)
*Format: mp3@CBR320kbps
*Size: 80MB

Tracklist:
01. Corporal Viscid Falsehood
02. Obnoxious Humanity
03. Abhorrent Cycles of Lunacy
04. Exorcised Impious Entity
05. A Ghastly Abomination Emerged from the Deep Abyss
06. Revealed in Tormented Epiphany
07. Spawned Aberration
08. Infected By Marburg
09. Obscene Deformed Swarm
******************************
Total playing time: 33:04



Extended info
Members of Virulency, Fixation On Suffering, Endoparasitic hung over the prophecy tablets and ominous manuscripts. The results of gloomy research - Brutal Death Metal in the best traditions of mortal bands from USA. Natural drums, tempo changes, oldschool musicality.


Technical info
(IMG:http://metalarea.org/images/spectrogram/2020_Feb/7aabfc3b531aa58f2df4de3ca56e39ba.png)
Input File: 03. Abhorrent Cycles Of Lunacy.mp3
Channels : 2
Sample Rate : 44100
Precision : 16-bit
Duration : 00:04:58.68 = 13171656 samples = 22400.8 CDDA sectors
File Size : 12.2M
Bit Rate : 326k
Sample Encoding: MPEG audio (layer I, II or III)
Comments :
Title=Abhorrent Cycles Of Lunacy
Artist=Putreseminal Viscosity
Album=Spectral Rituals of Malignancy
Tracknumber=3
Year=2020
Genre=Brutal Death



Register


Go to the top of the page
  Insert nick Quick quote
+Quote Post
 
Start new topic
Replies (1 - 3)
post Feb 15 2020, 08:05:24
Post #2

hearer & reader
**************
Group: Металариец
Posts: 8,786
Releases: 143
From: Moscow
On Forums: 12 years 9 months
Thanks: 8918 time(s)
Russian Federation


Хорошо рубят испанцы.


Go to the top of the page
  Insert nick Quick quote
+Quote Post
post Apr 12 2020, 09:46:21
Post #3

Full-of-Hate
**************
Group: Металариец
Posts: 3,711
Releases: 0
From: Moscow
On Forums: 11 years 15 hours
Thanks: 3513 time(s)
Russian Federation


Lord of the Dick Recordings давно взошли на конвейерный путь штамповки фантиков. Есть крутые релизы и очень даже, но Putreseminal Viscosity явно не относится к списку фаворитов. Spectral Rituals of Malignancy - это винегрет из US-way нулевых годов, инструментальная подготовка более-менее выразительная, материал крутой, запись суховатая, но достаточно натуралистичная (хотя к пережатым гитарам есть вопросы), но все это благолепие убивает появление вокала, который, мягко говоря, здесь откровенно слабый и его достаточно много. Вокальные саунд эффекты для брутала это здоровое явление, но настолько неуместного использования еще надо поискать. Испанцы сами себе запороли альбом, который мог стать одним из открытый года.
Go to the top of the page
  Insert nick Quick quote
+Quote Post
post May 21 2020, 21:19:41
Post #4

NoneSoVile
**********
Group: Металариец
Posts: 1,316
Releases: 7
On Forums: 14 years 1 month
Thanks: 1581 time(s)
Australia


Excellent release.

Brutal, complex, flowing, grooves and hyper blast ya face off.

Really good guitar work, backed by a dynamic and changing rhythm section.

Great stuff, fucking love it!
Go to the top of the page
  Insert nick Quick quote
+Quote Post

Reply to this topicStart new topic
1 User(s) are reading this topic (1 Guests and 0 Anonymous Users)
0 Members:

 



- Lo-Fi Version Support form
Copyrights and abuse reports form
Time is now: 2nd July 2020 - 09:54:01