Welcome Guest ( Log In | Register )

> Releases Upload / Добавление релизов

Добавить релиз тут / Click here to add release
Рекомендованные обменники / Recommended file shares

> Putreseminal Viscosity - Spectral Rituals Of Malignancy (2020), Brutal Death Metal
post Feb 14 2020, 18:46:45
Post #1

Правь статус, ####!111
**************
Group: Металариец
Posts: 21,254
Releases: 14534
From: Г.Харьков
On Forums: 7 years 10 months
Thanks: 259079 time(s)
Unknown


(IMG:http://metalarea.org/images/audiocovers/2020_Feb/acov_tid333811_thumb.jpg)

*Artist: Putreseminal Viscosity
*Album: Spectral Rituals Of Malignancy
*Year: 2020
*Genre: Brutal Death Metal
*Country: Spain (IMG:http://metalarea.org/forum/style_images/flags/Spain.png)
*Format: mp3@CBR320kbps
*Size: 80MB

Tracklist:
01. Corporal Viscid Falsehood
02. Obnoxious Humanity
03. Abhorrent Cycles of Lunacy
04. Exorcised Impious Entity
05. A Ghastly Abomination Emerged from the Deep Abyss
06. Revealed in Tormented Epiphany
07. Spawned Aberration
08. Infected By Marburg
09. Obscene Deformed Swarm
******************************
Total playing time: 33:04



Extended info
Members of Virulency, Fixation On Suffering, Endoparasitic hung over the prophecy tablets and ominous manuscripts. The results of gloomy research - Brutal Death Metal in the best traditions of mortal bands from USA. Natural drums, tempo changes, oldschool musicality.


Technical info
(IMG:http://metalarea.org/images/spectrogram/2020_Feb/7aabfc3b531aa58f2df4de3ca56e39ba.png)
Input File: 03. Abhorrent Cycles Of Lunacy.mp3
Channels : 2
Sample Rate : 44100
Precision : 16-bit
Duration : 00:04:58.68 = 13171656 samples = 22400.8 CDDA sectors
File Size : 12.2M
Bit Rate : 326k
Sample Encoding: MPEG audio (layer I, II or III)
Comments :
Title=Abhorrent Cycles Of Lunacy
Artist=Putreseminal Viscosity
Album=Spectral Rituals of Malignancy
Tracknumber=3
Year=2020
Genre=Brutal Death



Register


Go to the top of the page
  Insert nick Quick quote
+Quote Post
 
Start new topic
Replies (1 - 1)
post Feb 15 2020, 08:05:24
Post #2

hearer & reader
**************
Group: Металариец
Posts: 8,508
Releases: 130
From: Moscow
On Forums: 12 years 6 months
Thanks: 8357 time(s)
Russian Federation


Хорошо рубят испанцы.


Go to the top of the page
  Insert nick Quick quote
+Quote Post

Reply to this topicStart new topic
1 User(s) are reading this topic (1 Guests and 0 Anonymous Users)
0 Members:

 



- Lo-Fi Version Support form
Copyrights and abuse reports form
Time is now: 3rd April 2020 - 06:07:46