Welcome Guest ( Log In | Register )

> Releases Upload / Добавление релизов

Добавить релиз тут / Click here to add release
Рекомендованные обменники / Recommended file shares

 
Reply to this topicStart new topic
> Mecalimb - Collector Of Souls [ep] (2020), Melodic Death/Groove Metal
post Feb 14 2020, 19:23:40
Post #1

Маньяк
**********
Group: Металариец
Posts: 1,015
Releases: 183
On Forums: 11 years 4 months
Thanks: 3655 time(s)
Russian Federation


(IMG:http://metalarea.org/images/audiocovers/2020_Feb/acov_tid333812_thumb.jpg)

*Artist: Mecalimb
*Album: Collector Of Souls [ep]
*Year: 2020
*Genre: Melodic Death/Groove Metal
*Country: Norway (IMG:http://metalarea.org/forum/style_images/flags/Norway.png)
*Format: mp3@CBR320kbps
*Size: 38MB

Tracklist:
01. Visions of Blood 03:00
02. Solace for the Weak 05:05
03. Collector of Souls 04:29
04. Total War 03:45
******************************
Total playing time: 16:19

Preview 1
Preview 2

Extended info


Linneup:
Ole Olsen Guitars, Vocals (backing) (2005-present)
Dag Kopperud Bass, Vocals (backing) (2006-present)
Marius Pettersen Drums (2007-present)
Tom Angel Guitars (lead) (2013-present)
Robert Arntsen Vocals (2015-present)


Technical info
(IMG:http://metalarea.org/images/spectrogram/2020_Feb/80463f4fcab1e6e93cf7f68f266e3f2b.png)
Input File: 01-Visions of Blood.mp3
Channels : 2
Sample Rate : 44100
Precision : 16-bit
Duration : 00:03:00.26 = 7949378 samples = 13519.4 CDDA sectors
File Size : 7.21M
Bit Rate : 320k
Sample Encoding: MPEG audio (layer I, II or III)
Comments :
Title=Visions of Blood
Artist=Mecalimb
Album=Collector of Souls
Tracknumber=1
Year=2020-02-14
Genre=Melodic Death/Groove Metal



Register


Go to the top of the page
  Insert nick Quick quote
+Quote Post

Reply to this topicStart new topic
1 User(s) are reading this topic (1 Guests and 0 Anonymous Users)
0 Members:

 



- Lo-Fi Version Support form
Copyrights and abuse reports form
Time is now: 7th April 2020 - 03:45:24