Welcome Guest ( Log In | Register )

 
Reply to this topicStart new topic
> Lifetaker - Night Intruder (2020), Grindcore/Hardcore/Sludge Metal
post Feb 14 2020, 19:38:19
Post #1

Правь статус, ####!111
**************
Group: Металариец
Posts: 2,786
Releases: 2491
From: Одесса
On Forums: 11 years 11 months
Thanks: 23621 time(s)
Ukraine


(IMG:http://metalarea.org/images/audiocovers/2020_Feb/acov_tid333813_thumb.jpg)

*Artist: Lifetaker
*Album: Night Intruder
*Year: 2020
*Genre: Grindcore/Hardcore/Sludge Metal
*Country: Germany (IMG:http://metalarea.org/forum/style_images/flags/Germany.png)
*Format: mp3@CBR320kbps
*Size: 67MB

Tracklist:
1.Pestkult
2.Colony
3.Catacomb Winds
4.Cold War
5.Loverope
6.Liturgy
7.First Woe
8.Wound Man
9.Solipsist
10.Grabendolch
11.Carcosa
12.Tombless
13.Glorify the Blade
14.Stigmata
******************************
Total playing time: 30:10



Extended info
Line - up:

Gerrit - Bass (ex-Hanni Kohl, ex-Vergil)
Nico - Drums (ex-The Sovereign, ex-Placenta Powerfist, ex-Mossat)
Alex - Guitars (ex-The Sovereign, ex-Mossat)
Tobias - Guitars (ex-Vergil)
Konstantin - Vocals (ex-Wolves Carry My Name)

(IMG:https://www.metal-archives.com/images/3/5/4/0/3540439691_photo.png?3938)


Technical info
(IMG:http://metalarea.org/images/spectrogram/2020_Feb/d35916d9d3659eeda153c2fc7987eea4.png)
Input File: 14. Stigmata.mp3
Channels : 2
Sample Rate : 44100
Precision : 16-bit
Duration : 00:02:22.12 = 6267360 samples = 10658.8 CDDA sectors
File Size : 5.75M
Bit Rate : 323k
Sample Encoding: MPEG audio (layer I, II or III)
Comments :
Title=Stigmata
Artist=Lifetaker
Album=Night Intruder
Tracknumber=14
Year=2020
Genre=Grindcore/Hardcore/Sludge Metal



Register


Go to the top of the page
  Insert nick Quick quote
+Quote Post

Reply to this topicStart new topic
1 User(s) are reading this topic (1 Guests and 0 Anonymous Users)
0 Members:

 



- Lo-Fi Version Support form
Copyrights and abuse reports form
Time is now: 28th May 2020 - 21:33:58