Welcome Guest ( Log In | Register )

> Releases Upload / Добавление релизов

Добавить релиз тут / Click here to add release
Рекомендованные обменники / Recommended file shares

 
Reply to this topicStart new topic
> Bhereg - Arcane Doctrine [demo] (2012), Black Metal
post Feb 14 2020, 20:19:14
Post #1

the faceless one
Group Icon
Group: S-moderation team
Posts: 9,262
Releases: 1906
On Forums: 11 years 7 months
Thanks: 113462 time(s)
Russian Federation


(IMG:http://metalarea.org/images/audiocovers/2020_Feb/acov_tid333814_thumb.jpg)

*Artist: Bhereg
*Album: Arcane Doctrine [demo]
*Year: 2012
*Genre: Black Metal
*Country: United States (IMG:http://metalarea.org/forum/style_images/flags/United%20States.png)
*Format: mp3@CBR320kbps
*Size: 34MB

Tracklist:
1. Mystery Initiation 03:50
2. Arcane Doctrine 03:35
3. Noumena 04:46
4. In Satanic Nature 02:27
******************************
Total playing time: 14:38



Extended info
Было в лоу.


Technical info
(IMG:http://metalarea.org/images/spectrogram/2020_Feb/dba9107161dc3f1958a0956ad091c311.png)
Input File: 02 Arcane Doctrine.mp3
Channels : 2
Sample Rate : 44100
Precision : 16-bit
Duration : 00:03:35.21 = 9490673 samples = 16140.6 CDDA sectors
File Size : 8.62M
Bit Rate : 320k
Sample Encoding: MPEG audio (layer I, II or III)
Comments :
Title=Arcane Doctrine
Artist=Bhereg
Album=Arcane Doctrine
Tracknumber=02/4
Year=2012



Register


Go to the top of the page
  Insert nick Quick quote
+Quote Post

Reply to this topicStart new topic
1 User(s) are reading this topic (1 Guests and 0 Anonymous Users)
0 Members:

 



- Lo-Fi Version Support form
Copyrights and abuse reports form
Time is now: 4th April 2020 - 16:35:56