Welcome Guest ( Log In | Register )

 
Reply to this topicStart new topic
> The Silenced - Orator (2020), Groove Metal/Deathcore
post Feb 14 2020, 20:33:58
Post #1

Маньяк
**********
Group: Металариец
Posts: 1,353
Releases: 231
On Forums: 11 years 8 months
Thanks: 4747 time(s)
Russian Federation


(IMG:http://metalarea.org/images/audiocovers/2020_Feb/acov_tid333815_thumb.jpg)

*Artist: The Silenced
*Album: Orator
*Year: 2020
*Genre: Groove Metal/Deathcore
*Country: Finland (IMG:http://metalarea.org/forum/style_images/flags/Finland.png)
*Format: mp3@CBR320kbps
*Size: 117MB

Tracklist:
01. Resist to Exist 04:52
02. End Machine 03:56
03. The Tyranny of Words 04:26
04. Death on the Rise 04:33
05. Omnigma 03:32
06. Metanoia 06:46
07. Arguments of Ignorance 04:36
08. Conditioned Thought Patterns 04:41
09. The Semmelweis Reflex 04:14
10. Beyond the Pale 06:15
11. Slave New World 02:58
******************************
Total playing time: 50:49


Preview 2

Extended info


What began as a dynamic metal duo project by Juha Immonen & Janne Jaakkola (both ex-Hevein) now extends into a full-fledged five piece with Kristian Kuronen breaking the high end sonic barrier, Toni Kammonen hammering out low end vibrations, and Joonas Osara laying down shattering groove beats. Relentless creative fury and rage induced by the bleak world presented through the news are siphoned to form versatile, hard grooving metal that evades clear cut categorization.

After one EP and three single releases with videos creating highly positive bubbling under, the band is ready to burst out and conquer. Self produced and recorded debut album “ORATOR” consisting of 10 tracks is now mixed by the master Teemu Aalto (i.a. Omnium Gatherum, Insomnium) and mastered by another master Svante Forsbäck (i.a. Rammstein, Apocalyptica, Amorphis). With the looming debut album release The Silenced sets out to take it to the stages and shake booties and the constructs of the self appointed guardians of the status quo. (September 2019)



Finnish metal newcomers The Silenced being interviewed about the band´s debut album "Orator", due out 14th of February 2020 via Out Of Line Music.

Interview & Filming: Arto Mäenpää
Editing: Santeri Kujala


Technical info
(IMG:http://metalarea.org/images/spectrogram/2020_Feb/92151dd5f5d2a150df19342cd56fc5d4.png)
Input File: 01-Resist to Exist.mp3
Channels : 2
Sample Rate : 44100
Precision : 16-bit
Duration : 00:04:52.54 = 12900926 samples = 21940.4 CDDA sectors
File Size : 11.7M
Bit Rate : 320k
Sample Encoding: MPEG audio (layer I, II or III)
Comments :
Title=Resist to Exist
Artist=The Silenced
Album=Orator
Tracknumber=1
Year=2020-02-14
Genre=Groove Metal / Deathcore



Register


Go to the top of the page
  Insert nick Quick quote
+Quote Post

Reply to this topicStart new topic
1 User(s) are reading this topic (1 Guests and 0 Anonymous Users)
0 Members:

 



- Lo-Fi Version Support form
Copyrights and abuse reports form
Time is now: 4th August 2020 - 12:02:37