Welcome Guest ( Log In | Register )

> Releases Upload / Добавление релизов

Добавить релиз тут / Click here to add release
Рекомендованные обменники / Recommended file shares

 
Reply to this topicStart new topic
> Shadow Witch - Under The Shadow Of A Witch (2020), Psychedelic Stoner Metal
post Feb 14 2020, 20:44:38
Post #1

Маньяк
**********
Group: Металариец
Posts: 1,009
Releases: 182
On Forums: 11 years 4 months
Thanks: 3601 time(s)
Russian Federation


(IMG:http://metalarea.org/images/audiocovers/2020_Feb/acov_tid333816_thumb.jpg)

*Artist: Shadow Witch
*Album: Under The Shadow Of A Witch
*Year: 2020
*Genre: Psychedelic Stoner Metal
*Country: United States (IMG:http://metalarea.org/forum/style_images/flags/United%20States.png)
*Format: mp3@CBR320kbps
*Size: 93MB

Tracklist:
01. Spearfinger 03:00
02. Demon's Hook 04:02
03. Wolf Among the Sheep 04:59
04. Witches of Aendor 04:18
05. Shifter 03:34
06. Saint Magdalene 04:31
07. 6 x 6 03:54
08. Sour 03:51
09. Fountain 08:11
******************************
Total playing time: 40:20


Preview 2

Extended info


Linneup:
David Pannullo Bass, Vocals
Doug Beans Drums
Jeremy Hall Guitar
Earl Lundy Lead Vocals, Mellotron, Loops


Technical info
(IMG:http://metalarea.org/images/spectrogram/2020_Feb/66a35ad5fc1a0feaa78c4ba174c3d78a.png)
Input File: 02-Demon\'s Hook.mp3
Channels : 2
Sample Rate : 44100
Precision : 16-bit
Duration : 00:04:02.33 = 10686665 samples = 18174.6 CDDA sectors
File Size : 9.69M
Bit Rate : 320k
Sample Encoding: MPEG audio (layer I, II or III)
Comments :
Title=Demon's Hook
Artist=Shadow Witch
Album=Under the Shadow of a Witch
Tracknumber=2
Year=2020-02-14
Genre=Stoner Metal



Register


Go to the top of the page
  Insert nick Quick quote
+Quote Post

Reply to this topicStart new topic
1 User(s) are reading this topic (1 Guests and 0 Anonymous Users)
0 Members:

 



- Lo-Fi Version Support form
Copyrights and abuse reports form
Time is now: 30th March 2020 - 02:30:17