Welcome Guest ( Log In | Register )

> И неформату есть предел.

Рэп/хип-хоп/шансон/поп удаляются. Для них есть свои порталы.

 
Reply to this topicStart new topic
> Ordo Rosarius Equilibrio - Let's Play (Two Girls & A Goat) (2019), Neofolk (D9)
post Feb 14 2020, 20:53:22
Post #1

Два Литра
**
Group: Завсегдатай
Posts: 171
Releases: 6
From: Санкт-Петербург
On Forums: 13 years 9 months
Thanks: 461 time(s)
Russian Federation


(IMG:http://metalarea.org/images/audiocovers/2020_Feb/acov_tid333817_thumb.jpg)

*Artist: Ordo Rosarius Equilibrio
*Album: Let's Play (Two Girls & A Goat)
*Year: 2019
*Genre: Neofolk
*Country: Sweden (IMG:http://metalarea.org/forum/style_images/flags/Sweden.png)
*Format: mp3@CBR320kbps
*Size: 139MB

Tracklist:
01. Forty Years After Null (There's No Answer To The Riddle) 03:13
02. Two Girls And A Goat (I Never Knew…) 05:37
03. Evil Wears A Mask With Your Name 04:19
04. I Met Jesus In A Dream (Till Illusions Fall Apart) 05:27
05. Let's Play Said The Rose To The Goat 03:32
06. This Is Life This Is War (Let's Play And Make Believe) 04:58
07. This Knife Will Steal Your Heart - Let's Waken The Judas In You 05:13
08. There's No Pride Love Is Dead (Kiss My Eyes And Crush My Head) 06:00
09. Anoint Me With Vomit, And Desecrate My Beliefs 04:28
10. There's A Chalice With My Semen (And Another With My Blood) 04:07
11. [Social Darwinist Contortion] Who Is Born To Rule The World? 03:28
12. Ménage À Trois - There Is Nothing To Regret 04:41
13. The Hierophant & The Devil (You Taste Like Innocence, And Broken Dreams) 04:32
******************************
Total playing time: 59:35

(IMG:http://metalarea.org/images/youtube.png)

Technical info
(IMG:http://metalarea.org/images/spectrogram/2020_Feb/9fedd667e46ed55a3314b04a15bafa59.png)
Input File: 01 - Forty Years After Null (There\'s No Answer To The Riddle).mp3
Channels : 2
Sample Rate : 44100
Precision : 16-bit
Duration : 00:03:12.93 = 8508125 samples = 14469.6 CDDA sectors
File Size : 8.20M
Bit Rate : 340k
Sample Encoding: MPEG audio (layer I, II or III)
Comments :
Title=Forty Years After Null (There's No Answer To The Riddle)
Artist=Ordo Rosarius Equilibrio
Album=Let's Play (Two Girls & A Goat)
Tracknumber=01
Year=2019
Genre=Neofolk



Register


Go to the top of the page
  Insert nick Quick quote
+Quote Post

Reply to this topicStart new topic
1 User(s) are reading this topic (1 Guests and 0 Anonymous Users)
0 Members:

 



- Lo-Fi Version Support form
Copyrights and abuse reports form
Time is now: 19th February 2020 - 23:39:10