Welcome Guest ( Log In | Register )

> И неформату есть предел.

Рэп/хип-хоп/шансон/поп удаляются. Для них есть свои порталы.

 
Reply to this topicStart new topic
> 300 000 V.K. - Peter Paradox (2019), Industrial/Electronic/Experimental
post Feb 14 2020, 21:12:21
Post #1

Три Литра
***
Group: Завсегдатай
Posts: 229
Releases: 8
From: Санкт-Петербург
On Forums: 14 years 2 months
Thanks: 800 time(s)
Russian Federation


(IMG:http://metalarea.org/images/audiocovers/2020_Feb/acov_tid333818_thumb.jpg)

*Artist: 300 000 V.K.
*Album: Peter Paradox
*Year: 2019
*Genre: Industrial/Electronic/Experimental
*Country: Slovenia (IMG:http://metalarea.org/forum/style_images/flags/Slovenia.png)
*Format: mp3@CBR320kbps
*Size: 98MB

Tracklist:
01. Das Schöne, Das Gute, Das Wahre 03:20
02. Paradosso Misterioso 04:30
03. S+C 06:19
04. La Consolazione 04:33
05. Smisel 05:36
06. Carnales Nihilismus 04:07
07. Zona Erogena 03:26
08. Beyond Death 05:47
09. Dobro 04:50
******************************
Total playing time: 42:29

(IMG:http://metalarea.org/images/youtube.png)

Extended info
Новый альбом проекта Dejan Knez, бывшего участника Laibach, первый после 14-летнего перерыва. В отличие от предыдущих записей, местами как раз Laibach и напоминает.


Technical info
(IMG:http://metalarea.org/images/spectrogram/2020_Feb/edbd4d7e5ce2cc6722b01fd93fad938d.png)
Input File: 02 - Paradosso Misterioso.mp3
Channels : 2
Sample Rate : 44100
Precision : 16-bit
Duration : 00:04:30.25 = 11918201 samples = 20269 CDDA sectors
File Size : 10.8M
Bit Rate : 320k
Sample Encoding: MPEG audio (layer I, II or III)
Comments :
Title=Paradosso Misterioso
Artist=300 000 V.K.
Album=Peter Paradox
Tracknumber=02
Year=2019
Genre=Industrial/Electronic



Register


Go to the top of the page
  Insert nick Quick quote
+Quote Post

Reply to this topicStart new topic
1 User(s) are reading this topic (1 Guests and 0 Anonymous Users)
0 Members:

 



- Lo-Fi Version Support form
Copyrights and abuse reports form
Time is now: 4th August 2020 - 11:55:53