Welcome Guest ( Log In | Register )

> Releases Upload / Добавление релизов

Добавить релиз тут / Click here to add release
Рекомендованные обменники / Recommended file shares

 
Reply to this topicStart new topic
> Yarreth - Two Sides [demo] (1992), Heavy Metal
post Feb 15 2020, 08:03:04
Post #1

Подвал
**************
Group: Металариец
Posts: 14,328
Releases: 8107
From: Far East (Khabarovsk)
On Forums: 11 years 2 months
Thanks: 81387 time(s)
Russian Federation


(IMG:http://metalarea.org/images/audiocovers/2020_Feb/acov_tid333826_thumb.jpg)

*Artist: Yarreth
*Album: Two Sides [demo]
*Year: 1992
*Genre: Heavy Metal
*Country: Netherlands (IMG:http://metalarea.org/forum/style_images/flags/Netherlands.png)
*Format: mp3@CBR320kbps
*Size: 52MB

Tracklist:
1. Two Sides Of The Coin 05:44
2. Big Parade 05:31
3. Insanity 05:39
4. Ring Of Fire 05:46
******************************
Total playing time: 22:40

Extended info
Includes Claus van den Berg on drums (ex-Mandator/Mysto Dysto).


Technical info
(IMG:http://metalarea.org/images/spectrogram/2020_Feb/916c394b5e7a6718e8129ae563e86481.png)
Input File: 01-Two Sides Of The Coin.mp3
Channels : 2
Sample Rate : 44100
Precision : 16-bit
Duration : 00:05:45.05 = 15216573 samples = 25878.5 CDDA sectors
File Size : 13.8M
Bit Rate : 320k
Sample Encoding: MPEG audio (layer I, II or III)
Comments :
Title=Two Sides Of The Coin
Artist=Yarreth
Album=Two Sides (Demo)
Tracknumber=01
Year=1992



Register


Go to the top of the page
  Insert nick Quick quote
+Quote Post

Reply to this topicStart new topic
1 User(s) are reading this topic (1 Guests and 0 Anonymous Users)
0 Members:

 



- Lo-Fi Version Support form
Copyrights and abuse reports form
Time is now: 31st March 2020 - 20:56:13