Welcome Guest ( Log In | Register )

> И неформату есть предел.

Рэп/хип-хоп/шансон/поп удаляются. Для них есть свои порталы.

 
Reply to this topicStart new topic
> Null Positiv - Amok (2018), Nu Metal
post Feb 15 2020, 09:07:03
Post #1

Два Литра
**
Group: Завсегдатай
Posts: 188
Releases: 18
From: Kaunas
On Forums: 13 years 4 months
Thanks: 542 time(s)
Lithuania


(IMG:https://metalarea.org/images/audiocovers/2020_Feb/acov_tid333827_thumb.jpg)

*Artist: Null Positiv
*Album: Amok
*Year: 2018
*Genre: Nu Metal
*Country: Germany (IMG:https://metalarea.org/forum/style_images/flags/Germany.png)
*Format: mp3@CBR320kbps
*Size: 140MB

Tracklist:
01. Psychopath 4:08
02. Trauma 4:10
03. Amok 4:41
04. Schizo 3:39
05. Neue Matrix 4:07
06. Als ob wir Götter wären 6:48
07. Hexenjagd 4:58
08. König Ego 4:09
09. Turm der Angst 5:09
10. Unter deiner Haut 3:43
11. Borderliner 3:40
12. Scars 5:26
13. Rabenhaar 5:02
******************************
Total playing time: 59:40

Extended info
Band:
Vocals - Elli Berlin
Guitar - Bene Gugerbauer
Drums - Flo Schnablo
Bass - Manu Aldor



Technical info
(IMG:https://metalarea.org/images/spectrogram/2020_Feb/4858f2badcde37ba5305ebe1a43de8f5.png)
Input File: 01 Psychopath.mp3
Channels : 2
Sample Rate : 44100
Precision : 16-bit
Duration : 00:04:08.54 = 10960702 samples = 18640.6 CDDA sectors
File Size : 10.2M
Bit Rate : 330k
Sample Encoding: MPEG audio (layer I, II or III)
Comments :
Title=Psychopath
Artist=Null Positiv
Album=Amok
Tracknumber=01/13
Year=2018
Genre=Metal
Discnumber=1/1



Register


Thanks:
Go to the top of the page
  Insert nick Quick quote
+Quote Post

Reply to this topicStart new topic
1 User(s) are reading this topic (1 Guests and 0 Anonymous Users)
0 Members:

 



- Lo-Fi Version Support form
Copyrights and abuse reports form
Time is now: 29th May 2020 - 15:00:54