Welcome Guest ( Log In | Register )

> Releases Upload / Добавление релизов

Добавить релиз тут / Click here to add release
Рекомендованные обменники / Recommended file shares

 
Reply to this topicStart new topic
> Thrill Kill - Splatter House (2020), Thrash/Groove Metal
post Feb 15 2020, 13:28:02
Post #1

Правь статус, ####!111
**************
Group: Металариец
Posts: 21,172
Releases: 14459
From: Г.Харьков
On Forums: 7 years 10 months
Thanks: 257756 time(s)
Unknown


(IMG:http://metalarea.org/images/audiocovers/2020_Feb/acov_tid333838_thumb.jpg)

*Artist: Thrill Kill
*Album: Splatter House
*Year: 2020
*Genre: Thrash/Groove Metal
*Country: Russian Federation (IMG:http://metalarea.org/forum/style_images/flags/Russian%20Federation.png)
*Format: mp3@CBR320kbps
*Size: 53MB

Tracklist:
1. Total Insane War 02:51
2. You Cannot Change Me! 02:59
3. Splatter House 02:54
4. New Blood 02:47
5. Mental Terror 02:46
6. Here We Go! 03:03
7. Gunshot Bride 02:25
8. Light a Fire 03:01
******************************
Total playing time: 22:46

Preview 1

Extended info
Yerdna Eidnolb Bass
Sergey Sergeevich Drums
Aleksej Arteew Guitars
Felix Zefirov Guitars
Bam Grind Vocals




Technical info
(IMG:http://metalarea.org/images/spectrogram/2020_Feb/88414854689480e498ed4f6f39a7d196.png)
Input File: 06 - Here We Go!.mp3
Channels : 2
Sample Rate : 44100
Precision : 16-bit
Duration : 00:03:03.16 = 8077224 samples = 13736.8 CDDA sectors
File Size : 7.43M
Bit Rate : 325k
Sample Encoding: MPEG audio (layer I, II or III)
Comments :
Title=Here We Go!
Artist=Thrill Kill
Album=Splatter House
Tracknumber=6
Year=2020-01-31
Genre=Metal
Discnumber=1



Register


Go to the top of the page
  Insert nick Quick quote
+Quote Post

Reply to this topicStart new topic
1 User(s) are reading this topic (1 Guests and 0 Anonymous Users)
0 Members:

 



- Lo-Fi Version Support form
Copyrights and abuse reports form
Time is now: 29th March 2020 - 19:04:41