Welcome Guest ( Log In | Register )

> Releases Upload / Добавление релизов

Добавить релиз тут / Click here to add release
Рекомендованные обменники / Recommended file shares

> Throne Of Evil - Orator (2019), Black Metal
post Feb 16 2020, 07:03:17
Post #1

Каждое ваше "Спасибо" помогает мне понять, что я делаю новости не напрасно.
**************
Group: Металариец
Posts: 2,464
Releases: 2180
From: Одесса
On Forums: 11 years 9 months
Thanks: 20184 time(s)
Ukraine


(IMG:http://metalarea.org/images/audiocovers/2020_Feb/acov_tid333847_thumb.jpg)

*Artist: Throne Of Evil
*Album: Orator
*Year: 2019
*Genre: Black Metal
*Country: Chile (IMG:http://metalarea.org/forum/style_images/flags/Chile.png)
*Format: mp3@CBR320kbps
*Size: 114MB

Tracklist:
1.Satan / Babalon 03:43
2.Predicador 07:27
3.Máscaras negras 04:52
4.Especie agonizante 06:27
5.Their Mysterious Ways 08:14
6.Antu Vilu 05:24
7.Mollfüñ 04:52
8.Martyrs 04:58
9.Outro 01:39
******************************
Total playing time: 47:36



Extended info
Line - up:

Iskur - Guitars
Helland - Synths, Vocals
Balrog - Vocals, Guitars (Concatenatus)

(IMG:https://www.metal-archives.com/images/3/5/4/0/3540360687_photo.jpg?3717)


Technical info
(IMG:http://metalarea.org/images/spectrogram/2020_Feb/c851d3ddd179d9af979cc03f6db7d214.png)
Input File: 07. Mollfüñ.mp3
Channels : 2
Sample Rate : 44100
Precision : 16-bit
Duration : 00:04:52.12 = 12882492 samples = 21909 CDDA sectors
File Size : 11.7M
Bit Rate : 320k
Sample Encoding: MPEG audio (layer I, II or III)
Comments :
Title=Mollfüñ
Artist=Throne Of Evil
Album=Orator
Tracknumber=7
Year=2019
Genre=138



Register


Go to the top of the page
  Insert nick Quick quote
+Quote Post
 
Start new topic
Replies (1 - 2)
post Feb 16 2020, 14:20:04
Post #2


**************
Group: Металариец
Posts: 2,227
Releases: 14
From: Казань
On Forums: 10 years 6 months
Thanks: 2991 time(s)
Russian Federation


В большинстве своем мудрецы современного(избитого и искалеченного) BM в своих шаблонных альбомах кидают в первой песне хит(с клипом,ага), который тащит за собой весь последующий порожняк на альбоме, абсолютно пустой и гнусный, неслушабельный и заезженный. Люди, которым понравился "хит" ждут продолжения, но хитов разумеется не будет, они всё слушают и слушают, посыпая проклятиями новую работу, выключив на середине "одного и того же" и удалив все это издевательство. Некоторые терпеливые, дослушивают до конца, побуждаемые все теми же чувствами, но теша себя надеждой что надо рассуждать, выискивая в бочке с навозом ложку хитов. Эти разочаровываются еще больше.
Примерно с таким же настроением я стал слушать и Orator, побуждаемый бомбезной Conocimiento Oculto , все надеясь найти здесь тот же драйв и потрясающий Renaissance забытой Норвегии, но пылу поубавилось со второй же Predicador. Отвратительная вещь с хоралами, которая уничтожила весь дух концепта, подвигла к желанию выключить это. Но дальше все стало выравниваться и звучать весьма бойко и интересно. Хоралы конечно присутствуют, это ужасно, но альбом вышел динамичным и разнообразным. К середине сего Действа, он внезапно стал мне по душе и все последующие вещи укрепили меня во мнении , что лента получилась шикарной и эрудированной. Это напоминает речи Заратустры, которого никто не хотел слушать, но он говорил и говорил, побуждая к размышлению. Альбом для отшельников , в нем нет злобы и страданий, но есть Экскурс , ибо там - Their Mysterious Ways


Thanks:
Go to the top of the page
  Insert nick Quick quote
+Quote Post
post Feb 17 2020, 14:16:00
Post #3

De Mysteriis Dom Sathanas
**************
Group: Металариец
Posts: 3,859
Releases: 63
From: Doom
On Forums: 11 years 8 months
Thanks: 3260 time(s)
Russian Federation


Хорошая неординарная группа..заприметил еще с епишки
Go to the top of the page
  Insert nick Quick quote
+Quote Post

Reply to this topicStart new topic
1 User(s) are reading this topic (1 Guests and 0 Anonymous Users)
0 Members:

 



- Lo-Fi Version Support form
Copyrights and abuse reports form
Time is now: 31st March 2020 - 20:55:18