Welcome Guest ( Log In | Register )

> И неформату есть предел.

Рэп/хип-хоп/шансон/поп удаляются. Для них есть свои порталы.

 
Reply to this topicStart new topic
> De Forbandede & Måneskjold - De Forbandede/Måneskjold [split] (2019), Psychedelic Garage/Stoner Rock | Psychedelic Space/Stoner Rock
post Feb 16 2020, 09:14:18
Post #1

Мегаманьяк
***********
Group: Металариец
Posts: 1,797
Releases: 163
From: Omsk, Siberia
On Forums: 11 years 3 weeks
Thanks: 3544 time(s)
Russian Federation


(IMG:http://metalarea.org/images/audiocovers/2020_Feb/acov_tid333851_thumb.jpg)

*Artist: De Forbandede & Måneskjold
*Album: De Forbandede/Måneskjold [split]
*Year: 2019
*Genre: Psychedelic Garage/Stoner Rock | Psychedelic Space/Stoner Rock
*Country: Denmark (IMG:http://metalarea.org/forum/style_images/flags/Denmark.png) | Denmark (IMG:http://metalarea.org/forum/style_images/flags/Denmark.png)
*Format: mp3@CBR320kbps
*Size: 34MB

Tracklist:
De Forbandede:
1. Åbn Dine Øjne 04:53
2. Egne Ben 03:59
Måneskjold:
3. Solsejler 03:21
4. Dolkhale 02:28
******************************
Total playing time: 14:42






Extended info
Put out on vinyl and digitally by: Yoshiwara Collective, Svensk Psych Aften, SomeStudio, Virkelighedsfjern, Vinyltrolden and Record Pusher.

De Forbandede line-up:
Peter Østergaard Christensen - vocals, guitar
Nicolei Martin Aagaard Rasmussen - bass, backing vocals (Extended Suicide, ex-The New Low [Dnk])
Michael Hansen Buur - organ, synth, backing vocals (Mindmare, ex-Morfeus [Dnk])
Ricky Christensen - drums, percussion (ex-Megalomania 999, Slowjoint (live))

Måneskjold line-up:
Rasmus Miehe Sørensen - vocals, guitar (By Uden Himmel, ex-Rocket Gravy)
Kriller Andersen - guitar, backing vocals (By Uden Himmel, Gaia [Dnk], God Dam, Katla [Dnk], Lucid Grave, Naturale [Dnk], Solens Folk, ex-Rocket Gravy)
Morten Bastkjær Christensen - bass (Gaia [Dnk], God Dam, Gråsind, Katla [Dnk], Solens Folk)
Mark B Jensen - drums (Gaia [Dnk], Katla [Dnk], Solens Folk)


Technical info
(IMG:http://metalarea.org/images/spectrogram/2020_Feb/d42e328fcd65ef5cc8998c37a8033447.png)
Input File: 02 De Forbandede - Egne Ben.mp3
Channels : 2
Sample Rate : 44100
Precision : 16-bit
Duration : 00:03:58.98 = 10539062 samples = 17923.6 CDDA sectors
File Size : 9.65M
Bit Rate : 323k
Sample Encoding: MPEG audio (layer I, II or III)
Comments :
Title=Egne Ben
Artist=De Forbandede
Album=De Forbandede / Måneskjold - Split
Tracknumber=2
Year=2019
Genre=Psychedelic Rock



Register


Go to the top of the page
  Insert nick Quick quote
+Quote Post

Reply to this topicStart new topic
1 User(s) are reading this topic (1 Guests and 0 Anonymous Users)
0 Members:

 



- Lo-Fi Version Support form
Copyrights and abuse reports form
Time is now: 10th April 2020 - 07:54:32