Welcome Guest ( Log In | Register )

> Nemesis - The War Is On (2020), Melodic Death/Thrash Metal
post Feb 16 2020, 13:05:32
Post #1

Правь статус, ####!111
**************
Group: Металариец
Posts: 21,974
Releases: 15165
From: Г.Харьков
On Forums: 8 years 3 weeks
Thanks: 275372 time(s)
Unknown


(IMG:http://metalarea.org/images/audiocovers/2020_Feb/acov_tid333855_thumb.jpg)

*Artist: Nemesis
*Album: The War Is On
*Year: 2020
*Genre: Melodic Death/Thrash Metal
*Country: Serbia (IMG:http://metalarea.org/forum/style_images/flags/Serbia.png)
*Format: mp3@CBR320kbps
*Size: 88MB

Tracklist:
01. Wake Up
02. Uprising
03. Oppression
04. Divine Retribution
05. Living Dead People
06. Savages
07. Dead End
08. Pandemonium
09. Born Wothless
10. The War Is On
******************************
Total playing time: 38:25



Extended info
Sanja Drča - Vocals
Aleksandra Petrović - Guitar
Tijana Milivojević - Guitar
Biljana Sovilj - Bass
Selena Simić - Drums



Technical info
(IMG:http://metalarea.org/images/spectrogram/2020_Feb/4c786159020c1764ead48a04eaa704c4.png)
Input File: 5 - Living Dead People.mp3
Channels : 2
Sample Rate : 44100
Precision : 16-bit
Duration : 00:05:37.86 = 14899758 samples = 25339.7 CDDA sectors
File Size : 13.6M
Bit Rate : 322k
Sample Encoding: MPEG audio (layer I, II or III)
Comments :
Title=Living Dead People
Artist=Nemesis
Album=The War Is On
Tracknumber=5
Year=2020
Genre=Rock
Discnumber=1



Register


Go to the top of the page
  Insert nick Quick quote
+Quote Post
 
Start new topic
Replies (1 - 6)
post Feb 17 2020, 01:41:19
Post #2

Ъ
**************
Group: Металариец
Posts: 10,097
Releases: 9
On Forums: 11 years 4 months
Thanks: 2022 time(s)
Sweden


Третьесорт, клипы забавные.


Thanks:
Go to the top of the page
  Insert nick Quick quote
+Quote Post
post Feb 17 2020, 05:47:10
Post #3

Четыре Литра
****
Group: Металариец
Posts: 353
Releases: 0
From: Ташкент
On Forums: 12 years 4 months
Thanks: 100 time(s)
Uzbekistan


Для старта неплохо, скорее обнадёживает
Go to the top of the page
  Insert nick Quick quote
+Quote Post
post Feb 18 2020, 21:39:13
Post #4

Это просто место… где все подошло к концу.
**************
Group: Металариец
Posts: 5,859
Releases: 0
From: Страны Мамонтов
On Forums: 13 years 3 months
Thanks: 2190 time(s)
Antarctica


Arch Enemy, это ты?
Go to the top of the page
  Insert nick Quick quote
+Quote Post
post Feb 19 2020, 13:21:14
Post #5

Правь статус, ####!111
**************
Group: Металариец
Posts: 3,023
Releases: 8
From: Dnipro
On Forums: 11 years 10 months
Thanks: 978 time(s)
Ukraine


ЦИТАТА(avather @ Feb 18 2020, 22:39:13) *
Arch Enemy, это ты?

Нет, я их клон (IMG:style_emoticons/default/1488.gif)


Thanks:
(1) Ghostb,
Go to the top of the page
  Insert nick Quick quote
+Quote Post
post Feb 20 2020, 16:51:54
Post #6

Правь статус, ####!111
**************
Group: Металариец
Posts: 2,140
Releases: 0
From: Харьков
On Forums: 10 years 8 months
Thanks: 984 time(s)
Ukraine


ЦИТАТА(isvili @ Feb 19 2020, 14:21:14) *
Нет, я их клон

Даже название группы как бы намекает (IMG:style_emoticons/default/1488.gif)
Go to the top of the page
  Insert nick Quick quote
+Quote Post
post Mar 24 2020, 07:22:16
Post #7

Литр
*
Group: Подсевший
Posts: 83
Releases: 2
From: Београд
On Forums: 11 years 3 days
Thanks: 93 time(s)
Serbia


mp3, 320 kbps

Register
Go to the top of the page
  Insert nick Quick quote
+Quote Post

Reply to this topicStart new topic
1 User(s) are reading this topic (1 Guests and 0 Anonymous Users)
0 Members:

 



- Lo-Fi Version Support form
Copyrights and abuse reports form
Time is now: 6th June 2020 - 19:42:04