Welcome Guest ( Log In | Register )

> Guardians Of The Night - Sand Of The Styx (2019), Melodic Death Metal
post Feb 17 2020, 15:37:28
Post #1

Правь статус, ####!111
**************
Group: Металариец
Posts: 21,974
Releases: 15165
From: Г.Харьков
On Forums: 8 years 3 weeks
Thanks: 275371 time(s)
Unknown


(IMG:http://metalarea.org/images/audiocovers/2020_Feb/acov_tid333872_thumb.jpg)

*Artist: Guardians Of The Night
*Album: Sand Of The Styx
*Year: 2019
*Genre: Melodic Death Metal
*Country: China (IMG:http://metalarea.org/forum/style_images/flags/China.png)
*Format: mp3@CBR320kbps
*Size: 98MB

Tracklist:
1. Sheng.Funeral
2. Ahto's Nightmare
3. Innocent Crime
4. Assassination
5. Heart of the King
6. Clouds Breaker
7. Extremely Elapsed
8. Body of Falsehood
******************************
Total playing time: 42:13

(IMG:http://metalarea.org/images/youtube.png)

Extended info
王鹏 Bass
宋丹 Guitars (lead)
黄乐 Guitars (rhythm)
吕鸿基 Keyboards
三儿 Keyboards
王琪 Vocals
洲洲 Drums (2019-present)
See also: Frozen Moon, The Dark Prison Massacre, Throat Cutter, TumourBoy


Technical info
(IMG:http://metalarea.org/images/spectrogram/2020_Feb/aceea0b6f9fe5c4d47888c52b2b82d1c.png)
Input File: 03 - イノセント-クライム.mp3
Channels : 2
Sample Rate : 44100
Precision : 16-bit
Duration : 00:04:51.10 = 12837554 samples = 21832.6 CDDA sectors
File Size : 11.8M
Bit Rate : 325k
Sample Encoding: MPEG audio (layer I, II or III)
Comments :
Title=イノセント-クライム
Artist=Guardians of the Night
Album=Sand of the Styx
Tracknumber=3
Year=2019



Register


Go to the top of the page
  Insert nick Quick quote
+Quote Post
 
Start new topic
Replies (1 - 6)
post Feb 17 2020, 19:44:03
Post #2

Четыре Литра
****
Group: Металариец
Posts: 316
Releases: 0
From: Kyiv
On Forums: 8 years 1 month
Thanks: 130 time(s)
Ukraine


*шутки про COVID-19*
Go to the top of the page
  Insert nick Quick quote
+Quote Post
post Feb 18 2020, 03:47:00
Post #3

Два Литра
**
Group: Завсегдатай
Posts: 144
Releases: 0
On Forums: 12 years 5 months
Thanks: 15 time(s)
Russian Federation


Release date: October 2019, так что слушайте смело.
Go to the top of the page
  Insert nick Quick quote
+Quote Post
post Feb 18 2020, 09:43:09
Post #4

тебе 29, а ты все реверсами балуешься
***********
Group: Металариец
Posts: 1,931
Releases: 4
On Forums: 11 years 10 months
Thanks: 639 time(s)
Russian Federation


На ранних Чобчиков смахивают, норм
Go to the top of the page
  Insert nick Quick quote
+Quote Post
post Feb 18 2020, 18:29:04
Post #5

Восемь Литров
********
Group: Металариец
Posts: 808
Releases: 2
On Forums: 9 years 8 months
Thanks: 347 time(s)
Belarus


смотри-ка по английски песни написали))Foneg, воистину.Ранние бодомы etos и прочие финны..
Go to the top of the page
  Insert nick Quick quote
+Quote Post
post Feb 19 2020, 13:20:04
Post #6

Правь статус, ####!111
**************
Group: Металариец
Posts: 3,023
Releases: 8
From: Dnipro
On Forums: 11 years 10 months
Thanks: 978 time(s)
Ukraine


ЦИТАТА(Battaleon @ Feb 18 2020, 19:29:04) *
Ранние бодомы etos и прочие финны..

Только в три раза хуже (IMG:style_emoticons/default/bye.gif)


Thanks:
(1) Ghostb,
Go to the top of the page
  Insert nick Quick quote
+Quote Post
post Feb 21 2020, 11:15:45
Post #7

Два Литра
**
Group: Завсегдатай
Posts: 149
Releases: 1
On Forums: 14 years 2 months
Thanks: 38 time(s)
Russian Federation


(IMG:style_emoticons/default/nono.gif)
Детская копия известных детей.
Для внутреннего пользования (Япония, Ю. Корея).


Thanks:
(1) Metalass,
Go to the top of the page
  Insert nick Quick quote
+Quote Post

Reply to this topicStart new topic
2 User(s) are reading this topic (2 Guests and 0 Anonymous Users)
0 Members:

 



- Lo-Fi Version Support form
Copyrights and abuse reports form
Time is now: 6th June 2020 - 19:28:52