Welcome Guest ( Log In | Register )

> Fenriswulf - Breaking The Chains (2020), Melodic Death Metal
post Feb 17 2020, 16:05:23
Post #1

Правь статус, ####!111
**************
Group: Металариец
Posts: 21,970
Releases: 15162
From: Г.Харьков
On Forums: 8 years 3 weeks
Thanks: 275339 time(s)
Unknown


(IMG:http://metalarea.org/images/audiocovers/2020_Feb/acov_tid333875_thumb.jpg)

*Artist: Fenriswulf
*Album: Breaking The Chains
*Year: 2020
*Genre: Melodic Death Metal
*Country: South Africa (IMG:http://metalarea.org/forum/style_images/flags/South%20Africa.png)
*Format: mp3@CBR320kbps
*Size: 123MB

Tracklist:
1. Intro
2. Perseverance (A Wailling Heart and a Moonlit Sky)
3. Heimdall's Gaze
4. Breaking the Chains
5. Skjaldborg (Shield Wall)
6. Pagan Pride
7. Wulves Ov Odin
8. The Day All God's Wept
9. Hope and Despair
10. Age of Steel (Alder Av Stal)
11. The Valkyries Prayer
12. Valhalla Awaits
******************************
Total playing time: 53:15



Extended info
Arries Naudé Bass (2015-present)
Wikus Kleynhans Drums (2015-present)
Johan du Toit Guitars (lead) (2015-present)
Renaldo Cilliers Guitars (rhythm) (2015-present)
Henco Chamberlain Vocals (2015-present)



Technical info
(IMG:http://metalarea.org/images/spectrogram/2020_Feb/5394c94d129d4c6360accafb80fb385b.png)
Input File: 03 - Heimdall\'s Gaze.mp3
Channels : 2
Sample Rate : 44100
Precision : 16-bit
Duration : 00:04:07.63 = 10920527 samples = 18572.3 CDDA sectors
File Size : 10.0M
Bit Rate : 324k
Sample Encoding: MPEG audio (layer I, II or III)
Comments :
Title=Heimdall's Gaze
Artist=FenrisWulf
Album=Breaking the Chains
Tracknumber=3
Year=2020



Register


Go to the top of the page
  Insert nick Quick quote
+Quote Post
 
Start new topic
Replies (1 - 2)
post Feb 18 2020, 18:22:28
Post #2

Восемь Литров
********
Group: Металариец
Posts: 808
Releases: 2
On Forums: 9 years 8 months
Thanks: 347 time(s)
Belarus


лютый закос под амон амарс
Go to the top of the page
  Insert nick Quick quote
+Quote Post
post Feb 19 2020, 13:18:32
Post #3

Правь статус, ####!111
**************
Group: Металариец
Posts: 3,023
Releases: 8
From: Dnipro
On Forums: 11 years 10 months
Thanks: 978 time(s)
Ukraine


ЦИТАТА(Battaleon @ Feb 18 2020, 19:22:28) *
лютый закос под амон амарс
Так а что ты хотел, у них в составе два гитариста негра из Амон Амарт (IMG:style_emoticons/default/25.gif)


Thanks:
(1) Battaleon,
Go to the top of the page
  Insert nick Quick quote
+Quote Post

Reply to this topicStart new topic
2 User(s) are reading this topic (2 Guests and 0 Anonymous Users)
0 Members:

 



- Lo-Fi Version Support form
Copyrights and abuse reports form
Time is now: 6th June 2020 - 18:13:28