Welcome Guest ( Log In | Register )

> Karnivore - Dödsriket (2020), Death/Thrash Metal
post Feb 17 2020, 19:25:43
Post #1

Правь статус, ####!111
**************
Group: Металариец
Posts: 21,932
Releases: 15131
From: Г.Харьков
On Forums: 8 years 3 weeks
Thanks: 274660 time(s)
Unknown


(IMG:http://metalarea.org/images/audiocovers/2020_Feb/acov_tid333887_thumb.jpg)

*Artist: Karnivore
*Album: Dödsriket
*Year: 2020
*Genre: Death/Thrash Metal
*Country: Sweden (IMG:http://metalarea.org/forum/style_images/flags/Sweden.png)
*Format: mp3@CBR320kbps
*Size: 107MB

Tracklist:
1. Hinterkaifeck (Intro)
2. Empire of Filth
3. War Is Coming
4. Slice 'n Dice
5. No Freak
6. Murder Dungeon
7. Black Flames
8. The Antfarm
9. Woodshed
10. Disfigured Man
******************************
Total playing time: 46:33




Extended info
Mattias Johansson Drums (2010-present)
See also: Goat Skull, In Pain, ex-Fear the Future, ex-Karneywar, ex-El Camino, ex-Nidhöggr, ex-Under Attack
Jens Englund Guitars (2010-present)
See also: Skyfall, ex-Memoria, ex-Karneywar
Martin Holmqvist Vocals (2010-present)
See also: ex-Karneywar


Technical info
(IMG:http://metalarea.org/images/spectrogram/2020_Feb/447bd1a6ad8e68e7f148849de1f1055a.png)
Input File: 06 - Murder Dungeon.mp3
Channels : 2
Sample Rate : 44100
Precision : 16-bit
Duration : 00:05:43.25 = 15137105 samples = 25743.4 CDDA sectors
File Size : 13.9M
Bit Rate : 323k
Sample Encoding: MPEG audio (layer I, II or III)
Comments :
Title=Murder Dungeon
Artist=Karnivore
Album=Dödsriket
Tracknumber=6
Year=2020-02-11
Genre=Metal
Discnumber=1



Register


Go to the top of the page
  Insert nick Quick quote
+Quote Post
 
Start new topic
Replies (1 - 3)
post Feb 18 2020, 06:26:35
Post #2

Шесть Литров
******
Group: Металариец
Posts: 606
Releases: 5
From: Ивантеевка, Московская область
On Forums: 12 years 5 months
Thanks: 218 time(s)
Russian Federation


Превьюха интересная. Придется слушать всё. (IMG:style_emoticons/default/smile1.gif)
Go to the top of the page
  Insert nick Quick quote
+Quote Post
post Feb 18 2020, 08:35:33
Post #3

hearer & reader
**************
Group: Металариец
Posts: 8,707
Releases: 140
From: Moscow
On Forums: 12 years 8 months
Thanks: 8742 time(s)
Russian Federation


А тут, на третьем альбоме, уже Melodic Death/Thrash Metal.
Go to the top of the page
  Insert nick Quick quote
+Quote Post
post Feb 19 2020, 13:11:55
Post #4

Правь статус, ####!111
**************
Group: Металариец
Posts: 3,016
Releases: 8
From: Dnipro
On Forums: 11 years 10 months
Thanks: 977 time(s)
Ukraine


Даже сказал что Melodic Death/Thrash/Black Metal
Очень не плохой альбом.
Go to the top of the page
  Insert nick Quick quote
+Quote Post

Reply to this topicStart new topic
1 User(s) are reading this topic (1 Guests and 0 Anonymous Users)
0 Members:

 



- Lo-Fi Version Support form
Copyrights and abuse reports form
Time is now: 3rd June 2020 - 13:31:54